Геппі! (Сезон 2) / Happy! (Season 2) (2019) 1080p Ukr/Eng | sub Ukr/Eng

Нові коментарі

Нова тема   Відповісти
Автор Повідомлення
Anonymous 







2020-12-27 16:34  
Геппі! (Сезон 2) / Happy! (Season 2) (2019) 1080p Ukr/Eng | sub Ukr/Eng

Геппі! (Сезон 2) / Happy! (Season 2) (2019) 1080p Ukr/Eng | sub Ukr/Eng


Жанр: екшн, комедія, кримінальний
Країна: США



Кінокомпанія: Littleton Road Productions, Original Film, Syfy
Режисер: Браян Тейлор, Девід Петрарка
Актори: Крістофер Мелоні, Річі Костер, Лілі Мірожнік, Паттон Освальт, Брайс Лоренцо, Медіна Сенгхор, Патрік Фішлер, Квентін Моралез, Кеті Бет Голл, Джозеф Д. Рейтман, Гас Халпер, Рен Коллі, Лора По, Бенджамін Снайдер, Крістофер Фіцджеральд

Сюжет:
Колишній нормальний мужик, колишній кращий поліцейський, колишній улюбленець преси, не зупинився навіть на тому, що став кілером. Він допився до синіх маленьких єдинорогів, як мінімум до одного з них. Який стверджує, що він друг найчудовішої маленької дівчинки, яка потрапила в біду. Нік Сакс вирішив, що це його найперший алкогольний глюк… дурниця пройде, нехай навіть потім з’являться інші. Але на жаль, ця літаюча, моторошно балакуча істота не пропала, ні через годину ні, через день, продовжувала говорити нісенітниці про те, що життя складається з радості і веселощів, а також наполягала, щоб герой врятував маленьку дівчинку з рук убивці…


Тривалість: 1 серія: ~ 45 хв. (цілком серій: 10)
Перелік серій
01 - The War on Easter
02 - Tallahassee
03 - Some Girls Need a Lot of Repenting
04 - Blitzkrieg!!!
05 - 19 Hours and 13 Minutes
06 - Pervapalozza
07 - Arlo and Marie
08 - A Friend of Death
09 - Five Chicken Fingers and a Gun
10 - Resurrection
Якість: [Happy.S02.1080p.AMZN..DDP5.1.-NTb]
Відео:
кодек:
розмір кадру: 1920 х 1080
бітрейт: 7878 кб/с

Аудіо # 1:
мова: українська
переклад: багатоголосий закадровий
кодек: 2.0
бітрейт: 192 кб/с

Аудіо # 2:
мова: англійська
переклад: оригінал
кодек: 5.1
бітрейт: 640 кб/с

Джерело озвучення:
DniproFilm

Субтитри:
мова: українська
тип: програмні (м'які)
формат: *.srt

Субтитри:
мова: англійська
тип: програмні (м'які)
формат: *.srt
Info
Код:
General
Unique ID                                : 152382245814977648357813398941552064711 (0x72A3C0C5F8AF3FC068B03F937057B8C7)
Complete name                            : Happy! S02E01 (2019) 1080p [Ukr_Eng] [Hurtom].
Format                                   :
Format version                           : Version 4
File size                                : 2.95 GiB
Duration                                 : 48 min 27 s
Overall bit rate                         : 8 713 kb/s
Movie name                               : Геппі! (Сезон 2, серія 1) (2019)
Encoded date                             : UTC 2020-11-29 01:04:39
Writing application                      : v50.0.0 ('Awakenings') 64-bit
Writing library                          : libebml v1.4.0 + v1.6.2
Cover                                    : Yes
Attachments                              : cover.jpg

Video
ID                                       : 1
Format                                   : AVC
Format/Info                              : Advanced Video Codec
Format profile                           : [email protected]
Format settings                          : CABAC / 4 Ref Frames
Format settings, CABAC                   : Yes
Format settings, Reference frames        : 4 frames
Codec ID                                 : V_MPEG4/ISO/AVC
Duration                                 : 48 min 27 s
Bit rate mode                            : Constant
Bit rate                                 : 7 878 kb/s
Nominal bit rate                         : 10 000 kb/s
Width                                    : 1 920 pixels
Height                                   : 1 080 pixels
Display aspect ratio                     : 16:9
Frame rate mode                          : Constant
Frame rate                               : 23.976 (24000/1001) FPS
Color space                              : YUV
Chroma subsampling                       : 4:2:0
Bit depth                                : 8 bits
Scan type                                : Progressive
Bits/(Pixel*Frame)                       : 0.158
Stream size                              : 2.67 GiB (90%)
Default                                  : Yes
Forced                                   : No
Color range                              : Limited
Color primaries                          : BT.709
Transfer characteristics                 : BT.709
Matrix coefficients                      : BT.709

Audio #1
ID                                       : 2
Format                                   : AC-3
Format/Info                              : Audio Coding 3
Commercial name                          : Dolby Digital
Codec ID                                 : A_AC3
Duration                                 : 48 min 27 s
Bit rate mode                            : Constant
Bit rate                                 : 192 kb/s
Channel(s)                               : 2 channels
Channel layout                           : L R
Sampling rate                            : 48.0 kHz
Frame rate                               : 31.250 FPS (1536 SPF)
Compression mode                         : Lossy
Stream size                              : 66.5 MiB (2%)
Language                                 : Ukrainian
Service kind                             : Complete Main
Default                                  : Yes
Forced                                   : Yes

Audio #2
ID                                       : 3
Format                                   : E-AC-3
Format/Info                              : Enhanced AC-3
Commercial name                          : Dolby Digital Plus
Codec ID                                 : A_EAC3
Duration                                 : 48 min 27 s
Bit rate mode                            : Constant
Bit rate                                 : 640 kb/s
Channel(s)                               : 6 channels
Channel layout                           : L R C LFE Ls Rs
Sampling rate                            : 48.0 kHz
Frame rate                               : 31.250 FPS (1536 SPF)
Compression mode                         : Lossy
Stream size                              : 222 MiB (7%)
Language                                 : English
Service kind                             : Complete Main
Default                                  : No
Forced                                   : No

Text #1
ID                                       : 4
Format                                   : UTF-8
Codec ID                                 : S_TEXT/UTF8
Codec ID/Info                            : UTF-8 Plain Text
Duration                                 : 48 min 3 s
Bit rate                                 : 93 b/s
Count of elements                        : 640
Stream size                              : 33.1 KiB (0%)
Language                                 : Ukrainian
Default                                  : Yes
Forced                                   : No

Text #2
ID                                       : 5
Format                                   : UTF-8
Codec ID                                 : S_TEXT/UTF8
Codec ID/Info                            : UTF-8 Plain Text
Duration                                 : 47 min 59 s
Bit rate                                 : 79 b/s
Count of elements                        : 1007
Stream size                              : 27.9 KiB (0%)
Title                                    : SDH
Language                                 : English
Default                                  : No
Forced                                   : No

Скріншоти




Джерело:
подяка за субтитри пану leicheman


Авторський реліз (завантажувати можна без реєстрації)
 Трекер:    Зареєстрований   

Завантажити / скачати серіал українською



відео для новачків



 Зареєстрований:   2020-12-27 16:34
 Розмір:   28.74 GB 
 Оцінка серіалу:   10/10 (Голосів: 5)
   
Ваш часовий пояс: GMT + 2 Години

Нова тема   Відповісти