Karfagen - Principles and Theory of Spektra (2020) [] | Symphonic Prog / Progressive Rock

Нові коментарі

Нова тема   Відповісти
Автор Повідомлення
kolpavel 
VIP


З нами з: 04.05.14
Востаннє: 19.01.21
Повідомлень: 1366

2020-12-27 00:09  
Karfagen - Principles and Theory of Spektra (2020) [] | Symphonic Prog / Progressive Rock

Karfagen - Principles and Theory of Spektra (2020) [] | Symphonic Prog / Progressive Rock


Стиль: Symphonic Prog Progressive Rock
Країна, місто: Україна, Харкiв
Сайти: Офіційний сайт
Видавець: Caerllysi Music
Виконавці:
Антоній Калугін - клавіші, вокал, ударні інструменти, флейта фен, аранжування, програмування
Mathieu Spaeter - електрогітари
Костянтин Іоненко - бас
Віктор Сиротін - барабани
Олександр Павлов - гітара
Олександр Пастухов - фагот
Марія Барановська - скрипка
Олена Кушій - флейта
Пісні:
    01 - Levitation - 09:45
    02 - Hunter - 06:02
    03 - Phantasmagoria - 12:58
    04 - Birth of a Star - 07:04
    05 - Calypso - 10:57
    06 - Gravitation - 07:26

Тривалість: 00:54:14
Мова: iнструментальнi композицiї
Аудіо-кодек:
Бітрейт: 647-989 кб/с
Джерело: трекер
Додаткова інформація:
лог DRM
foobar2000 1.4.2 / Dynamic Range Meter 1.1.1
log date: 2020-12-24 18:36:35

--------------------------------------------------------------------------------
Analyzed: Karfagen / Principles and Theory of Spektra
--------------------------------------------------------------------------------

DR Peak RMS Duration Track
--------------------------------------------------------------------------------
DR10 0.00 dB -12.53 dB 9:45 01-Levitation
DR10 -0.01 dB -11.71 dB 6:03 02-Hunter
DR14 -0.13 dB -17.97 dB 12:58 03-Phantasmagoria
DR11 -0.13 dB -13.65 dB 7:05 04-Birth of a Star
DR9 -0.03 dB -12.21 dB 10:57 05-Calypso
DR11 -0.07 dB -13.55 dB 7:27 06-Gravitation
--------------------------------------------------------------------------------

Number of tracks: 6
Official DR value: DR11

Samplerate: 44100 Hz
Channels: 2
Bits per sample: 16
Bitrate: 839 kbps
Codec:
================================================================================
лог якостi
-----------------------

DON'T MODIFY THIS FILE

-----------------------

PERFORMER: auCDtect Task Manager, ver. 1.6.0 RC1 build 1.6.0.1
Copyright (c) 2008-2010 y-soft. All rights reserved
http://y-soft.org

ANALYZER: auCDtect: CD records authenticity detector, version 0.8.2
Copyright (c) 2004 Oleg Berngardt. All rights reserved.
Copyright (c) 2004 Alexander Djourik. All rights reserved.

FILE: 06 - Gravitation.
Size: 46900382 Hash: 0FAFA02BC6FBCC8A271153E7AD1243A0 Accuracy: -m40
Conclusion: CDDA 100%
Signature: 8BA0E73996B2CF3BB609B1FD7388D07CE66127B9
FILE: 05 - Calypso.
Size: 63056730 Hash: FB274B00BD0BDEB535F610BCC58E7646 Accuracy: -m40
Conclusion: CDDA 86%
Signature: 39AB5BCC8316669C3B050DFD70207FE41E951B6B
FILE: 04 - Birth of a Star.
Size: 41415763 Hash: CD2C9C57240610DC7ED41375DB06DB29 Accuracy: -m40
Conclusion: CDDA 86%
Signature: 301B75961BBCB8C61BDD4E46660CD5E1B0A3C5E9
FILE: 03 - Phantasmagoria.
Size: 62987698 Hash: 819B5696BD3816DDF47B00704396052D Accuracy: -m40
Conclusion: CDDA 100%
Signature: A1E89F8A54D2BF0258E0485F9BCAEF6FE34B7F1B
FILE: 02 - Hunter.
Size: 44898382 Hash: 347FCDC181518B39A15B5225CB1D764F Accuracy: -m40
Conclusion: MPEG 80%
Signature: F3E99A7867E5F66276F5A579282CC900DD9C1B5F
FILE: 01 - Levitation.
Size: 67086844 Hash: BCD88559F05C17CC957C06A8FF97CB70 Accuracy: -m40
Conclusion: CDDA 100%
Signature: 0ADBCE941682A770F22D925C3FC95F804BCB115E


Якщо Ви справді бажаєте підтримати українське - після прослуховування, якщо музика вам сподобалась, придбайте ліцензійний диск. Підтримаймо вітчизняних виконавців!


Срібний реліз (на рейтинг впливає 50% завантаженого)
 Трекер:    Зареєстрований   

Завантажити / скачати українську музику



відео для новачків



 Зареєстрований:   2020-12-27 00:21
 Розмір:   312 MB 
 Оцінка музики:   7/10 (Голосів: 3)
   
Ваш часовий пояс: GMT + 2 Години

Нова тема   Відповісти