Син нобелівського лауреата / Nobel son (2008) 1080p Eng | sub Ukr

Нові коментарі

Нова тема   Відповісти
Автор Повідомлення
krabapka 
Свій


З нами з: 15.08.15
Востаннє: 11.04.21
Повідомлень: 125

2020-12-26 23:24  
Син нобелівського лауреата / Nobel son (2008) 1080p Eng | sub Ukr

Син нобелівського лауреата / Nobel son (2008) 1080p Eng | sub Ukr


Жанр: драма, кримінальний, трилер, чорна комедія
Країна: США



Режисер: Рендалл Міллер
Актори: Алан Рікман, Мері Стінбюрген, Брайан Грінберг, Денні ДеВіто, Білл Пуллман

Сюжет:
Професор хімії, Ілай Майклсон, виграє Нобелівську премію. Принижуючи усіх - дружину, сина, колег, він вирушає у Швецію за нагородою. Супроводжує його дружина, а син не встигає на літак через те, що його викрадають.


Тривалість: 01:50:17
Якість: 1080p
Відео:
кодек:
розмір кадру: 1920 x 816
бітрейт: 8805 кб/с

Аудіо:
мова: англійська
переклад: оригінал
кодек: 5.1
бітрейт: 1509 кб/с

Субтитри: (окремим файлом)
мова: українська
тип: програмні (м'які)
формат: *.srt

Джерело субтитрів:
Власний любительський переклад
Info

General
Format :
Format version : Version 2
File size : 7.95 GiB
Duration : 1 h 50 min
Overall bit rate : 10.3 Mb/s
Encoded date : UTC 2009-12-07 08:59:44
Writing application : v2.9.7 ('Tenderness') built on Jul 1 2009 18:43:35
Writing library : libebml v0.7.7 + v0.8.1

Video
ID : 1
Format : AVC
Format/Info : Advanced Video Codec
Format profile : [email protected]
Format settings, CABAC : Yes
Format settings, RefFrames : 5 frames
Codec ID : V_MPEG4/ISO/AVC
Duration : 1 h 50 min
Bit rate : 8 805 kb/s
Width : 1 920 pixels
Height : 816 pixels
Display aspect ratio : 2.35:1
Frame rate mode : Constant
Frame rate : 23.976 (24000/1001) FPS
Color space : YUV
Chroma subsampling : 4:2:0
Bit depth : 8 bits
Scan type : Progressive
Bits/(Pixel*Frame) : 0.234
Stream size : 6.63 GiB (83%)
Writing library : core 79 r1354 636f98f
Encoding settings : cabac=1 / ref=5 / deblock=1:0:0 / analyse=0x3:0x2 / me=umh / subme=9 / psy=1 / psy_rd=1.0:0.0 / mixed_ref=1 / me_range=16 / chroma_me=1 / trellis=1 / 8x8dct=1 / cqm=0 / deadzone=21,11 / chroma_qp_offset=-2 / threads=3 / nr=0 / decimate=1 / mbaff=0 / constrained_intra=0 / bframes=3 / b_pyramid=0 / b_adapt=2 / b_bias=0 / direct=3 / wpredb=1 / wpredp=2 / keyint=250 / keyint_min=25 / scenecut=0 / rc_lookahead=40 / rc=2pass / mbtree=1 / bitrate=8805 / ratetol=1.0 / qcomp=0.60 / qpmin=10 / qpmax=51 / qpstep=4 / cplxblur=20.0 / qblur=0.5 / ip_ratio=1.40 / aq=1:1.00
Default : Yes
Forced : No

Audio
ID : 2
Format :
Format/Info : Digital Theater Systems
Mode : 16
Format settings, Endianness : Big
Codec ID : A_DTS
Duration : 1 h 50 min
Bit rate mode : Constant
Bit rate : 1 509 kb/s
Channel(s) : 6 channels
Channel positions : Front: L C R, Side: L R, LFE
Sampling rate : 48.0 kHz
Frame rate : 93.750 FPS (512 SPF)
Bit depth : 16 bits
Compression mode : Lossy
Stream size : 1.16 GiB (15%)
Default : Yes
Forced : No
Скріншоти








Джерело:
Особиста оцінка: 10 - без зайвих вагань рекомендую всім!


Золотий реліз (завантажене не впливає на рейтинг)
 Трекер:    Зареєстрований   

Завантажити / скачати фільм українською



відео для новачків



 Зареєстрований:   2020-12-28 23:55
 Розмір:   7.95 GB 
 Оцінка фільму:   10/10 (Голосів: 1)
   
igor911 
Модератор відео


З нами з: 18.01.08
Востаннє: 14.04.21
Повідомлень: 15851

2020-12-27 01:51  
krabapka написано:
1080 BluRay

MI написано:
Bits/(Pixel*Frame) : 0.057

такі низькоякісні ріпи заборонені правилами, для 1080р ріпа Bits/(Pixel*Frame) має бути не менше 0,16
Замініть, будь ласка, ріп.

krabapka 
Свій


З нами з: 15.08.15
Востаннє: 11.04.21
Повідомлень: 125

2020-12-28 16:46  
Торент оновлено.
Відео замінене на якісніше.

igor911 
Модератор відео


З нами з: 18.01.08
Востаннє: 14.04.21
Повідомлень: 15851

2020-12-28 17:00  
krabapka написано:
Відео замінене на якісніше.

krabapka написано:
розмір кадру: 1920 x 816
бітрейт: 2500 кб/с
Bits/(Pixel*Frame) : 0.067
2 Nobel.Son.2007.1080p.BluRay.H264.mp4 2.1 GB

щось не помітно...

krabapka 
Свій


З нами з: 15.08.15
Востаннє: 11.04.21
Повідомлень: 125

2020-12-28 17:03  
Ок. Заміню на 7 гігабайтник. В мене не виходить вирізати російську доріжку з потрібного формату.
igor911 
Модератор відео


З нами з: 18.01.08
Востаннє: 14.04.21
Повідомлень: 15851

2020-12-28 17:07  
krabapka, скористайтесь програмою MKVToolNIX - перепакуйте в , додайте українські субтитри у контейнер, з зайвих доріжок зніміть галочки і вони не потраплять у кінцевий файл.

Додано через 37 секунд:

якщо принциповим є контейнер mp4 - скористайтесь програмою My MP4Box GUI

krabapka 
Свій


З нами з: 15.08.15
Востаннє: 11.04.21
Повідомлень: 125

2020-12-28 17:10  
igor911
Не запрацювала в мене та прога. Поставлю 7 Гб, якщ буде комусь потрібно, то зроблять ріп. Я людина творча, мені ці технічні штуки виносять мозок))

igor911 
Модератор відео


З нами з: 18.01.08
Востаннє: 14.04.21
Повідомлень: 15851

2020-12-28 17:21  
krabapka написано:
Не запрацювала в мене та прога...Я людина творча, мені ці технічні штуки виносять мозок))

Вважайте цю програму (MKVToolNIX) інструментом митця, що дає змогу донести свою працю до публіки.

Ваш часовий пояс: GMT + 2 Години

Нова тема   Відповісти