Загублені (Сезони 1-6) / Lost (Seasons 1-6) (2004-2010) H.265 1080p Ukr/Eng | Sub Eng

Нові коментарі

Нова тема   Відповісти
Автор Повідомлення
Argentum 
VIP


З нами з: 25.09.11
Востаннє: 25.02.21
Повідомлень: 285

2020-12-26 20:01  
Загублені (Сезони 1-6) / Lost (Seasons 1-6) (2004-2010) H.265 1080p Ukr/Eng | Sub Eng

Загублені (Сезони 1-6) / Lost (Seasons 1-6) (2004-2010) H.265 1080p Ukr/Eng | Sub Eng


Жанр: пригодницький, містика, екшн, трилер
Країна: США



Кінокомпанія: ABC, Walt Disney Studios Home Entertainment
Режисер: Дж. Дж. Абрамс, Джеффрі Лібер, Деймон Лінделоф
Актори: Метью Фокс, Еванджелін Лілі, Террі О'Квінн, Джош Голловей, Майкл Емерсон, Емелі Де Рейвін, Невін Ендрюс, Елізабет Мітчелл, Мішель Родрігес, Юнджин Кім, Деніел Де Кім, Генрі Йен К'юсик, Невін Ендрюс, Хорхе Гарсія, Ієн Сомерхолдер, Меггі Грейс та інші.

Сюжет:
Трансатлантичний авіалайнер, відхилившись від курсу на 1000 миль, зазнав аварії на невідомому тропічному острові. Герої серіалу - 48 пасажирів, що вцілили після авіакатастрофи. Без будь-яких контактів із зовнішнім світом, сподіваючись тільки на себе, вони змушені жити на цій Богом забутій землі, з усіх сил намагаючись не піддаватися паніці. Їжі і води дуже мало... Надії на те, що їх коли-небудь знайдуть, ще менше... Але найстрашніші події того фатального дня, коли вони опинилися на цьому загубленому клаптику суші, були лише початком – подальший розвиток подій сповнений ще більшої загадковості та небезпеки. Яким буде завтра? Хто поруч - друг або ворог? Що за таємниці зберігає це місце? Хто ще живе на ньому?..

Тепер загублені повинні не тільки залишитися в живих, але й розгадати секрети острова, яких на ньому предосить.


Тривалість: 1 серія: 43:00 (цілком серій: 121)
Перелік серій
Season 1:
1x01. Pilot (Part 1)
1x02. Pilot (Part 2)
1x03. Tabula Rasa
1x04. Walkabout
1x05. White Rabbit
1x06. House of the Rising Sun
1x07. The Moth
1x08. Confidence Man
1x09. Solitary
1x10. Raised by Another
1x11. All the Best Cowboys Have Daddy Issues
1x12. Whatever the Case May Be
1x13. Hearts and Minds
1x14. Special
1x15. Homecoming
1x16. Outlaws
1x17. ...In Translation
1x18. Numbers
1x19. Deus Ex Machina
1x20. Do No Harm
1x21. The Greater Good
1x22. Born to Run
1x23. Exodus (Part 1)
1x24. Exodus (Part 2)
1x25. Exodus (Part 3)

Season 2:
2x01. Man of Science, Man of Faith
2x02. Adrift
2x03. Orientation
2x04. Everybody Hates Hugo
2x05. ...And Found
2x06. Abandoned
2x07. The Other 48 Days
2x08. Collision
2x09. What Kate Did
2x10. The 23rd Psalm
2x11. The Hunting Party
2x12. Fire + Water
2x13. The Long Con
2x14. One of Them
2x15. Maternity Leave
2x16. The Whole Truth
2x17. Lockdown
2x18. Dave
2x19. S.O.S.
2x20. Two for the Road
2x21. ?
2x22. Three Minutes
2x23. Live Together, Die Alone (Part 1)
2x24. Live Together, Die Alone (Part 2)

Season 3:
3x01. A Tale of Two Cities
3x02. The Glass Ballerina
3x03. Further Instructions
3x04. Every Man for Himself
3x05. The Cost of Living
3x06. I Do
3x07. Not in Portland
3x08. Flashes Before Your Eyes
3x09. Stranger in a Strange Land
3x10. Tricia Tanaka Is Dead
3x11. Enter 77
3x12. Par Avion
3x13. The Man from Tallahassee
3x14. Exposé
3x15. Left Behind
3x16. One of Us
3x17. Catch-22
3x18. D.O.C.
3x19. The Brig
3x20. The Man Behind the Curtain
3x21. Greatest Hits
3x22. Through the Looking Glass (Part 1)
3x23. Through the Looking Glass (Part 2)

Season 4:
4x01. The Beginning of the End
4x02. Confirmed Dead
4x03. The Economist
4x04. Eggtown
4x05. The Constant
4x06. The Other Woman
4x07. Ji Yeon
4x08. Meet Kevin Johnson
4x09. The Shape of Things to Come
4x10. Something Nice Back Home
4x11. Cabin Fever
4x12. There's No Place Like Home (Part 1)
4x13. There's No Place Like Home (Part 2)
4x14. There's No Place Like Home (Part 3)

Season 5:
5x01. Because You Left
5x02. The Lie
5x03. Jughead
5x04. The Little Prince
5x05. This Place Is Death
5x06. 316
5x07. The Life and Death of Jeremy Bentham
5x08. LaFleur
5x09. Namaste
5x10. He's Our You
5x11. Whatever Happened, Happened
5x12. Dead Is Dead
5x13. Some Like It Hoth
5x14. The Variable
5x15. Follow the Leader
5x16. The Incident (Part 1)
5x17. The Incident (Part 2)

Season 6:
6x01. LA X (Part 1)
6x02. LA X (Part 2)
6x03. What Kate Does
6x04. The Substitute
6x05. Lighthouse
6x06. Sundown
6x07. Dr. Linus
6x08. Recon
6x09. Ab Aeterno
6x10. The Package
6x11. Happily Ever After
6x12. Everybody Loves Hugo
6x13. The Last Recruit
6x14. The Candidate
6x15. Across the Sea
6x16. What They Died For
6x17. The End (Part 1)
6x18. The End (Part 2)
Якість:
Відео:
кодек: H.265
розмір кадру: 1920 х 1080
бітрейт: 5000 кб/с

Аудіо # 1:
мова: українська
переклад: багатоголосий закадровий HDRezka (DniproFilm)
кодек: 5.1
бітрейт: 384 кб/с

Аудіо # 2:
мова: англійська
переклад: оригінал
кодек: 5.1
бітрейт: 640 кб/с

Субтитри: (форсовані *)
мова: українська
тип: програмні (м'які)
формат: *.srt
* - на надписи

Субтитри:
мова: англійська
тип: програмні (м'які)
формат: *.srt
Info
General
Unique ID : 132517219464041159852306883912211656327 (0x63B1E35B42A9918011EEE86335D86E87)
Complete name : LOST.S03E03..1080p.H265.Ukr.Eng.Hurtom.
Format :
Format version : Version 4
File size : 1.77 GiB
Duration : 42 min 5 s
Overall bit rate : 6 025 kb/s
Movie name : 3x03. Further Instructions
Encoded date : UTC 2020-12-16 15:35:24
Writing application : v51.0.0 ('I Wish') 64-bit
Writing library : libebml v1.4.0 + v1.6.2

Video
ID : 1
Format : HEVC
Format/Info : High Efficiency Video Coding
Format profile : [email protected]@High
Codec ID : V_MPEGH/ISO/HEVC
Duration : 42 min 5 s
Bit rate : 4 999 kb/s
Width : 1 920 pixels
Height : 1 080 pixels
Display aspect ratio : 16:9
Frame rate mode : Constant
Frame rate : 23.976 (24000/1001) FPS
Color space : YUV
Chroma subsampling : 4:2:0
Bit depth : 8 bits
Bits/(Pixel*Frame) : 0.101
Stream size : 1.47 GiB (83%)
Title : HEVC 1920*1080 @ ~ 5 000 kb/s
Writing library : x265 2.4+6-fd01abfc7898:[Windows][GCC 6.3.0][64 bit] 8bit+10bit+12bit
Encoding settings : cpuid=1173503 / frame-threads=3 / numa-pools=8 / wpp / no-pmode / no-pme / no-psnr / no-ssim / log-level=2 / input-csp=1 / input-res=1920x1080 / interlace=0 / total-frames=0 / level-idc=41 / high-tier=1 / uhd-bd=0 / ref=3 / no-allow-non-conformance / no-repeat-headers / annexb / no-aud / no-hrd / info / hash=0 / no-temporal-layers / open-gop / min-keyint=23 / keyint=240 / bframes=4 / b-adapt=0 / b-pyramid / bframe-bias=0 / rc-lookahead=15 / lookahead-slices=6 / scenecut=40 / no-intra-refresh / ctu=64 / min-cu-size=8 / no-rect / no-amp / max-tu-size=32 / tu-inter-depth=1 / tu-intra-depth=1 / limit-tu=0 / rdoq-level=0 / dynamic-rd=0.00 / no-ssim-rd / signhide / no-tskip / nr-intra=0 / nr-inter=0 / no-constrained-intra / strong-intra-smoothing / max-merge=2 / limit-refs=3 / no-limit-modes / me=1 / subme=2 / merange=57 / temporal-mvp / weightp / no-weightb / no-analyze-src-pics / deblock=0:0 / sao / no-sao-non-deblock / rd=2 / no-early-skip / rskip / fast-intra / no-tskip-fast / no-cu-lossless / no-b-intra / rdpenalty=0 / psy-rd=2.00 / psy-rdoq=0.00 / no-rd-refine / analysis-mode=0 / no-lossless / cbqpoffs=0 / crqpoffs=0 / rc=abr / bitrate=5000 / qcomp=0.60 / qpstep=4 / stats-write=0 / stats-read=2 / cplxblur=20.0 / qblur=0.5 / vbv-maxrate=50000 / vbv-bufsize=50000 / vbv-init=0.9 / ipratio=1.40 / pbratio=1.30 / aq-mode=1 / aq-strength=1.00 / cutree / zone-count=0 / no-strict-cbr / qg-size=32 / no-rc-grain / qpmax=69 / qpmin=0 / sar=0 / overscan=0 / videoformat=5 / range=0 / colorprim=2 / transfer=2 / colormatrix=1 / chromaloc=0 / display-window=0 / max-cll=0,0 / min-luma=0 / max-luma=255 / log2-max-poc-lsb=8 / vui-timing-info / vui-hrd-info / slices=1 / opt-qp-pps / opt-ref-list-length-pps / multi-pass-opt-rps / scenecut-bias=0.05 / no-opt-cu-delta-qp / no-aq-motion / no-hdr / no-hdr-opt / no-dhdr10-opt / refine-level=5 / no-limit-sao
Language : Multiple languages
Default : Yes
Forced : Yes
Color range : Limited
Matrix coefficients : BT.709

Audio #1
ID : 2
Format : AC-3
Format/Info : Audio Coding 3
Commercial name : Dolby Digital
Codec ID : A_AC3
Duration : 42 min 5 s
Bit rate mode : Constant
Bit rate : 384 kb/s
Channel(s) : 6 channels
Channel layout : L R C LFE Ls Rs
Sampling rate : 48.0 kHz
Frame rate : 31.250 FPS (1536 SPF)
Compression mode : Lossy
Delay relative to video : 21 ms
Stream size : 116 MiB (6%)
Title : AC-3 5.1 @ 384 kb/s # DniproFilm
Language : Ukrainian
Service kind : Complete Main
Default : Yes
Forced : Yes

Audio #2
ID : 3
Format : AC-3
Format/Info : Audio Coding 3
Commercial name : Dolby Digital
Codec ID : A_AC3
Duration : 42 min 5 s
Bit rate mode : Constant
Bit rate : 640 kb/s
Channel(s) : 6 channels
Channel layout : L R C LFE Ls Rs
Sampling rate : 48.0 kHz
Frame rate : 31.250 FPS (1536 SPF)
Compression mode : Lossy
Delay relative to video : 29 ms
Stream size : 193 MiB (11%)
Title : AC-3 5.1 @ 640 kb/s
Language : English
Service kind : Complete Main
Default : No
Forced : No

Text #1
ID : 4
Format : UTF-8
Codec ID : S_TEXT/UTF8
Codec ID/Info : UTF-8 Plain Text
Duration : 36 min 29 s
Bit rate : 0 b/s
Count of elements : 5
Stream size : 198 Bytes (0%)
Title : Forced
Language : Ukrainian
Default : Yes
Forced : Yes

Text #2
ID : 5
Format : UTF-8
Codec ID : S_TEXT/UTF8
Codec ID/Info : UTF-8 Plain Text
Duration : 40 min 57 s
Bit rate : 45 b/s
Count of elements : 412
Stream size : 13.7 KiB (0%)
Title : Full
Language : English
Default : No
Forced : No
Скріншоти











Джерело:
Особиста оцінка: 8 - мені сподобалося


Авторський реліз (завантажувати можна без реєстрації)
 Трекер:    Зареєстрований   

Завантажити / скачати серіал українською



відео для новачків



 Зареєстрований:   2020-12-28 12:26
 Розмір:   221.04 GB 
 Оцінка серіалу:   9.9/10 (Голосів: 10)
   
bot 
робот


З нами з: 30.09.07
Востаннє: 26.05.05
Повідомлень: 27257

2020-12-26 20:01  
Тему перенесено з Серіали в HD до форуму Анонси релізів


Argentum

0mage0 
VIP


З нами з: 06.10.15
Востаннє: 24.02.21
Повідомлень: 782

2020-12-26 21:03  
Пам'ятаю, такі цікаві були перші сезони серіалу, а потім все гірше і гірше, в результаті навіть не пам'ятаю, чи додивився до кінця, таким він став нудним і нецікавим Sad (1)
hudda 
Свій


З нами з: 07.06.09
Востаннє: 25.02.21
Повідомлень: 90

2020-12-26 21:41  
Для цього серіалу робили нову озвучку??
Який в цьому сенс?

[Captain] 
Попереджень: 1
Попереджень: 1 


З нами з: 18.02.12
Востаннє: 25.02.21
Повідомлень: 2373

2020-12-26 21:46  
Пропоную додати телевізійну озвучку
General Franko-Safon 
VIP


З нами з: 03.07.20
Востаннє: 25.02.21
Повідомлень: 273

2020-12-27 02:03  
У світі, де є безліч хороших сучасних серіалів, хтось робить енне озвучення "Загублених". Не зрозуміло.
V.i.R.u.S 
Свій


З нами з: 19.11.10
Востаннє: 24.02.21
Повідомлень: 122

2020-12-27 14:34  
А планується з 264 кодеком?
tilda4334 
Відео Гуртом - фільмокрай
Відео Гуртом - фільмокрай


З нами з: 15.08.14
Востаннє: 24.02.21
Повідомлень: 1410

2020-12-27 14:50  
hudda написано:

Для цього серіалу робили нову озвучку??
Який в цьому сенс?

Серіал досі популярний, а до нього була така собі озвучка.
Я наприклад вперше подивився 6 сезонів серіалу, і кайфанув від озвучки, бо під час перегляду ні разу не змінювались актори озвучення.
[Captain] написано:
Пропоную додати телевізійну озвучку

Але підтримую цю ідею, для колекції було б не погано додати.

0mage0 
VIP


З нами з: 06.10.15
Востаннє: 24.02.21
Повідомлень: 782

2020-12-27 15:45  
General Franko-Safon написано:
У світі, де є безліч хороших сучасних серіалів, хтось робить енне озвучення "Загублених". Не зрозуміло.

Старі серіали також варті уваги.

leicheman 
Відео Гуртом - фільмокрай
Відео Гуртом - фільмокрай


З нами з: 03.07.14
Востаннє: 24.02.21
Повідомлень: 5913

2020-12-27 15:57  
tilda4334 написано:
Я наприклад вперше подивився 6 сезонів серіалу, і кайфанув від озвучки, бо під час перегляду ні разу не змінювались актори озвучення

Теж саме, я навіть намагався зводити під HD старий дубляж з нових записів, але тоді ще не дуже добре умів роботи тому і покинув після кількох серій. А коли Дніпро озвучили то подивився з задоволенням і тим паче нове їх озвучення краще підібрано голоси.

Додано через 2 хвилини 9 секунд:

tilda4334 написано:
Але підтримую цю ідею, для колекції було б не погано додати.

Якщо релізер буде додавати і старе озвучення то обов'язково спитайте у темі запису з ТБ бо там в когось мають бути свіжі записи з нового каналу і там якість трошки краща аніж наявні на толоці

Argentum 
VIP


З нами з: 25.09.11
Востаннє: 25.02.21
Повідомлень: 285

2020-12-27 16:33  
Цитата:
А планується з 264 кодеком?

Можливо трохи згодом, пізніше. Реліз у займе значно більше місця і це значний обсяг роботи.

Цитата:
Але підтримую цю ідею, для колекції було б не погано додати.

Зараз немає такої можливості тож поки що буде з наявною озвучкою. Як тільки з'явиться можливість планую додати.

zim333 
Свій


З нами з: 15.07.11
Востаннє: 16.02.21
Повідомлень: 107

2020-12-27 22:33  
Ще би хтось зробив таку ж збірку з двома озвучення в AVC, було б прекрасно.
bot 
робот


З нами з: 30.09.07
Востаннє: 26.05.05
Повідомлень: 27257

2020-12-28 12:25  
Тему перенесено з Анонси релізів до форуму Серіали в HD


Argentum

11994455 
Попереджень: 2
Попереджень: 2 


З нами з: 07.04.14
Востаннє: 24.02.21
Повідомлень: 714

2021-01-07 01:31  
Ні - це звичайно не дубляж як в 1-3 по ІСТВ ... АЛЕ ЯК ПРИЄМНО коли ВСІ 6 сезонів озвучують одні й ті самі люди...
Сюди б епілог закинути...

Ваш часовий пояс: GMT + 2 Години

Нова тема   Відповісти