Супер Крила (Сезон 2) / Super Wings (Season 2) (2017) 720p Ukr/Eng | Sub Eng

Нові коментарі

Нова тема   Відповісти
Автор Повідомлення
Anonymous 







2020-12-26 00:29  
Супер Крила (Сезон 2) / Super Wings (Season 2) (2017) 720p Ukr/Eng | Sub Eng



Жанр: анімація, пригодницький, дитячий, сімейний
Країна: США, Південна Корея, Китай



Кінокомпанія: FunnyFlux Entertainment, Little Airplane Productions, ODC Oriental Digital Content Comics
Режисер: Бендзіє Рендалл
Актори: Лука Падован, Гері Літтман, Вілл Благроув, Колін Крітчлі, Гадсон Ловерро

Сюжет:
Реактивний літак на ім’я Джетт подорожує світом, доставляючи пакунки дітям і вирішує проблеми зі своїми друзями "Супер Крила"


Тривалість: 1 серія: 12:00 (цілком серій: 52 з 52)
Перелік серій
2x01 It Came From Hong Kong [53] (Hong Kong)
2x02 Yeti Quest [54] (Bhutan)
2x03 Swimming Pigs [55] (The Bahamas Big Major Cay)
2x04 The Great Inflate [56] (Greece Athens)
2x05 Team Tango [57] (Argentina Buenos Aires)
2x06 Tip Of The Iceberg [58] (United States/Alaska Alaska)
2x07 Alp Help [59] (Switzerland)
2x08 Think Big [60] (Peru)
2x09 Dubai Fly By [61] (United Arab Emirates Dubai)
2x10 The Jeju Giant [62] (South Korea Jeju Island)
2x11 Panda-Monium [63] (China Chengdu)
2x12 The Large Little Laddie [64] (Republic of Ireland Dublin)
2x13 Tricky Trolls [65] (Norway Bergen)
2x14 Magno Dino [66] (Canada/Alberta Drumheller)
2x15 Trip to Times Past.Part1 [67] (France Dordogne)
2x16 Trip to Times Past.Part2 [68] (France Dordogne)
2x17 House of Ghoulies [69] (United States/New York (state) Sleepy Hollow)
2x18 Junior Detective [70] (United Kingdom/England London)
2x19 Home Run Julio [71] (Cuba)
2x20 Waffle Mix-Up [72] (Belgium)
2x21 The Super Seven [73] (United States/Wyoming Wyoming)
2x22 Whale Tale [74] (Fiji)
2x23 The Bermuda Blunder.Part1 [75] (United Kingdom/Bermuda Hamilton)
2x24 The Bermuda Blunder.Part2 [76] (United Kingdom/Bermuda Hamilton)
2x25 Laugh, Prince, Laugh [77] (Liechtenstein Vaduz)
2x26 Piano Panic [78] (Austria Salzburg)
2x27 Mission On Mars [79] (Chile Chile & Mars)
2x28 Christmas Down Under [80] (Australia Sydney)
2x29 Drills And Thrills [81] (Singapore Singapore)
2x30 The Dragon Flies [82] (Poland Kraków)
2x31 Sniff Test [83] (Malaysia Kuching)
2x32 The Pumpkin Roll [84] (Germany Ludwigsburg)
2x33 Doubles Trouble [85] (Indonesia Indonesia)
2x34 Snow on the Go [86] (Namibia Namibia)
2x35 Mermaid Melody [87] (Denmark Copenhagen)
2x36 Dalmatian Doggercise [88] (Croatia Dubrovnik)
2x37 Barcelona Birdhouse [89] (Spain Barcelona)
2x38 Cat in the Box [90] (Japan Tokyo)
2x39 Weather or Not [91] (Tonga Tonga)
2x40 Very Special Delivery.Part1 [92] (South Korea Jeonju, South Korea & Antarctica Antarctica)
2x41 Very Special Delivery.Part2 [93] (South Korea Jeonju, South Korea & Antarctica Antarctica)
2x42 Ballet Day [94] (Russia Siberia)
2x43 The Sheep Heap [95] (New Zealand New Zealand)
2x44 Blockosaurus Park [96] (Romania Romania)
2x45 The Trouble With Trompos [97] (Colombia Colombia)
2x46 Mangrove Mess [98] (Cambodia Cambodia)
2x47 There's No Place Like Rome [99] (Italy Rome)
2x48 Speed Hump [100] (Qatar Doha)
2x49 The Spy Who Surprised Me [101] (South Africa Cape Town)
2x50 Great Wall of Go [102] (China China)
2x51 Trojan Course [103] (Turkey Istanbul)
2x52 Loch Ness on Ice [104] (United Kingdom/Scotland Scotland)
Якість:
Відео:
кодек:
розмір кадру: 1280 х 720
бітрейт: 1333 - 3068 кб/с

Аудіо # 1:
мова: українська
переклад: професійний дубльований
кодек: HE- 2.0
бітрейт: 128 кб/с

Аудіо # 2:
мова: англійська
переклад: оригінал
кодек: HE- 2.0
бітрейт: 128 кб/с

Субтитри:
мова: англійська
тип: програмні (м'які)
формат: *.srt
Info
Format :
Format version : Version 4
File size : 208 MiB
Duration : 12 min 24 s
Overall bit rate : 2 347 kb/s
Encoded date : UTC 2020-12-20 18:29:10
Writing application : v47.0.0 ('Black Flag') 64-bit
Writing library : libebml v1.3.10 + v1.5.2

Video
ID : 1
Format : AVC
Format/Info : Advanced Video Codec
Format profile : [email protected]
Format settings : CABAC / 3 Ref Frames
Format settings, CABAC : Yes
Format settings, Reference : 3 frames
Codec ID : V_MPEG4/ISO/AVC
Duration : 12 min 23 s
Bit rate : 2 092 kb/s
Width : 1 280 pixels
Height : 720 pixels
Display aspect ratio : 16:9
Frame rate mode : Constant
Frame rate : 25.000 FPS
Original frame rate : 23.976 (24000/1001) FPS
Color space : YUV
Chroma subsampling : 4:2:0
Bit depth : 8 bits
Scan type : Progressive
Bits/(Pixel*Frame) : 0.091
Stream size : 185 MiB (89%)
Language : English
Default : Yes
Forced : No

Audio #1
ID : 2
Format : LC SBR
Format/Info : Advanced Audio Codec Low Complexity with Spectral Band Replication
Commercial name : HE-
Format settings : Explicit
Codec ID : A_AAC-2
Duration : 12 min 24 s
Bit rate : 128 kb/s
Channel(s) : 2 channels
Channel layout : L R
Sampling rate : 48.0 kHz
Frame rate : 23.438 FPS (2048 SPF)
Compression mode : Lossy
Stream size : 11.4 MiB (5%)
Language : Ukrainian
Default : Yes
Forced : No

Audio #2
ID : 3
Format : LC SBR
Format/Info : Advanced Audio Codec Low Complexity with Spectral Band Replication
Commercial name : HE-
Format settings : Explicit
Codec ID : A_AAC-2
Duration : 12 min 24 s
Bit rate : 128 kb/s
Channel(s) : 2 channels
Channel layout : L R
Sampling rate : 48.0 kHz
Frame rate : 23.438 FPS (2048 SPF)
Compression mode : Lossy
Stream size : 11.4 MiB (5%)
Language : English
Default : No
Forced : No

Text
ID : 4
Format : UTF-8
Codec ID : S_TEXT/UTF8
Codec ID/Info : UTF-8 Plain Text
Duration : 11 min 47 s
Bit rate : 62 b/s
Count of elements : 224
Stream size : 5.44 KiB (0%)
Language : English
Default : No
Forced : No
Скріншоти






Джерело:
Особиста оцінка: 0 - не дивився


Бронзовий реліз (на рейтинг впливає 75% завантаженого)
 Трекер:    Зареєстрований   

Завантажити / скачати мультфільм українською



відео для новачків



 Зареєстрований:   2020-12-26 00:29
 Розмір:   9.43 GB 
 Оцінка мультсеріалу:   9/10 (Голосів: 1)
   
Ваш часовий пояс: GMT + 2 Години

Нова тема   Відповісти