Геллфест / Hell Fest (2018) 720p Ukr/Eng | Sub Eng

Нові коментарі

Нова тема   Відповісти
Автор Повідомлення
Anonymous 







2020-12-25 20:32  
Геллфест / Hell Fest (2018) 720p Ukr/Eng | Sub Eng

Геллфест / Hell Fest (2018) 720p Ukr/Eng | Sub Eng

Повнорозмірні альтернативні постери:











повнорозмірні зображення відкриються по кліку (з натиснутим CTRL чи кліком середньою кнопкою мишки - у новій вкладці)


Жанр: жахи, трилер
Країна: США



Кінокомпанія: CBS Films, Tucker Tooley Entertainment, Valhalla Motion Pictures
Режисер: Ґреґорі Плоткін / Gregory Plotkin
Актори: Емі Форсайт / Amy Forsyth, Бекс Тейлор-Клаус / Bex Taylor-Klaus, Рейн Едвардс / Reign Edwards, Крістіан Джеймс / Christian James, Тоні Тодд / Tony Todd, Метт Меркуріо / Matt Mercurio, Кортні Дітц / Courtney Dietz, Майкл Турек / Michael Tourek, Робі Аттал / Roby Attal, Сінтія Меркадо / Cynthea Mercado, Стівен Конрой / Stephen Conroy та інші

Сюжет:
Студентка Наталі вирішила приїхати в гості до своєї найкращої подруги дитинства Брук, яка ділить свою кімнату із Тейлор. У будь-який інший час дівчата разом зі своїми хлопцями пішли би на концерт або в бар, але зараз же Гелловін. І саме зараз у їхньому місті проходить Геллфест – фестиваль страху та жаху, де всі намагаються якомога сильніше налякати одне одного. Лабіринти, ігри, головоломки – усе це можна буде знайти в цьому світі кошмарів. Але для одного відвідувача цей фестиваль не розвага – для нього це майданчик для полювання. Серійний убивця в масці збирається на очах у людей забирати життя, як ніби це частина Геллфесту. І коли Наталі з подругами розуміють, що тут відбуваються вбивства по-справжньому і саме вони будуть наступними жертвами, то для них залишається тільки одне – вижити.
Офіційний український трейлер:

Рейтинг MPAA: R - особам до 17 років обов'язкова присутність батьків або дорослого опікуна
Вікова категорія: 16+
Тривалість: 01:28:48
Якість: 720p
Відео:
кодек:
розмір кадру: 1280 х 688
бітрейт: 6000 Кб/с

Аудіо # 1:
мова: українська
переклад: професійний дубльований | студія ААА-sound
кодек: 2.0 [стерео]
бітрейт: 192 Кб/с
Інформація про дубляж
буде згодом
Аудіо # 2:
мова: англійська
переклад: оригінал
кодек: 5.1
бітрейт: 448 Кбіт/с

Субтитри # 1-2:
мова: англійська (повні, SDH)
тип: програмні (м'які)
формат: *.srt

Збережено оригінальні розділи, як на Blu-ray.
Info
Код:
Complete name               : Hell Fest (2018) [Ukr,Eng sub.Eng] 720p [Hurtom].
Format                      :
Format version              : Version 4
File size                   : 4.12 GiB
Duration                    : 1 h 28 min
Overall bit rate            : 6 634 kb/s
Movie name                  : Геллфест / Hell Fest (2018) [Ukr,Eng sub.Eng] 720p [Hurtom]
Encoded date                : UTC 2020-12-25 17:31:18
Writing application         : v51.0.0 ('I Wish') 64-bit
Writing library             : libebml v1.4.0 + v1.6.2
Cover                       : Yes
Attachments                 : cover.jpg

Video
ID                          : 1
Format                      : AVC
Format/Info                 : Advanced Video Codec
Format profile              : [email protected]
Format settings             : CABAC / 8 Ref Frames
Format settings, CABAC      : Yes
Format settings, Reference  : 8 frames
Codec ID                    : V_MPEG4/ISO/AVC
Duration                    : 1 h 28 min
Bit rate                    : 6 000 kb/s
Width                       : 1 280 pixels
Height                      : 688 pixels
Display aspect ratio        : 1.85:1
Frame rate mode             : Constant
Frame rate                  : 23.976 (24000/1001) FPS
Color space                 : YUV
Chroma subsampling          : 4:2:0
Bit depth                   : 8 bits
Scan type                   : Progressive
Bits/(Pixel*Frame)          : 0.284
Stream size                 : 3.72 GiB (90%)
Title                       : Геллфест / Hell Fest (2018) 720p [iFT]
Writing library             : core 142 r2431+42 c69a006 tMod [[email protected] X86_64]
Encoding settings           : cabac=1 / ref=9 / deblock=1:-3:-3 / analyse=0x3:0x133 / me=umh / subme=11 / psy=1 / fade_compensate=0.00 / psy_rd=1.05:1.05 / mixed_ref=1 / me_range=48 / chroma_me=1 / trellis=2 / 8x8dct=1 / cqm=0 / deadzone=21,11 / fast_pskip=0 / chroma_qp_offset=-4 / threads=16 / lookahead_threads=2 / sliced_threads=0 / nr=0 / decimate=0 / interlaced=0 / bluray_compat=0 / constrained_intra=0 / fgo=0 / bframes=8 / b_pyramid=1 / b_adapt=2 / b_bias=0 / direct=3 / weightb=1 / open_gop=0 / weightp=2 / keyint=240 / keyint_min=23 / scenecut=40 / intra_refresh=0 / rc_lookahead=100 / rc=2pass / mbtree=0 / bitrate=6000 / ratetol=1.0 / qcomp=0.60 / qpmin=0:0:0 / qpmax=69:69:69 / qpstep=4 / cplxblur=20.0 / qblur=0.5 / vbv_maxrate=40000 / vbv_bufsize=30000 / nal_hrd=none / filler=0 / ip_ratio=1.30 / pb_ratio=1.20 / aq=2:0.58 / aq-sensitivity=10.00 / aq-factor=1.00:1.00:1.00 / aq2=0 / aq3=0
Language                    : English
Default                     : Yes
Forced                      : No
Color range                 : Limited
Color primaries             : BT.709
Transfer characteristics    : BT.709
Matrix coefficients         : BT.709

Audio #1
ID                          : 2
Format                      : AC-3
Format/Info                 : Audio Coding 3
Commercial name             : Dolby Digital
Codec ID                    : A_AC3
Duration                    : 1 h 28 min
Bit rate mode               : Constant
Bit rate                    : 192 kb/s
Channel(s)                  : 2 channels
Channel layout              : L R
Sampling rate               : 48.0 kHz
Frame rate                  : 31.250 FPS (1536 SPF)
Compression mode            : Lossy
Stream size                 : 122 MiB (3%)
Title                       : Dub [AAA-sound], 2.0 [stereo] 192 Kbps
Language                    : Ukrainian
Service kind                : Complete Main
Default                     : Yes
Forced                      : Yes

Audio #2
ID                          : 3
Format                      : AC-3
Format/Info                 : Audio Coding 3
Commercial name             : Dolby Digital
Codec ID                    : A_AC3
Duration                    : 1 h 28 min
Bit rate mode               : Constant
Bit rate                    : 448 kb/s
Channel(s)                  : 6 channels
Channel layout              : L R C LFE Ls Rs
Sampling rate               : 48.0 kHz
Frame rate                  : 31.250 FPS (1536 SPF)
Compression mode            : Lossy
Stream size                 : 285 MiB (7%)
Title                       : Original, 5.1 448 Kbps
Language                    : English
Service kind                : Complete Main
Default                     : No
Forced                      : No

Text #1
ID                          : 4
Format                      : UTF-8
Codec ID                    : S_TEXT/UTF8
Codec ID/Info               : UTF-8 Plain Text
Duration                    : 1 h 23 min
Bit rate                    : 58 b/s
Count of elements           : 1155
Stream size                 : 35.6 KiB (0%)
Title                       : Eng Full
Language                    : English
Default                     : No
Forced                      : No

Text #2
ID                          : 5
Format                      : UTF-8
Codec ID                    : S_TEXT/UTF8
Codec ID/Info               : UTF-8 Plain Text
Duration                    : 1 h 23 min
Bit rate                    : 73 b/s
Count of elements           : 1467
Stream size                 : 44.9 KiB (0%)
Title                       : Eng SDH
Language                    : English
Default                     : No
Forced                      : No

Menu
00:00:00.000                : :Chapter 01
00:04:28.977                : :Chapter 02
00:12:09.979                : :Chapter 03
00:15:44.026                : :Chapter 04
00:22:44.029                : :Chapter 05
00:28:22.242                : :Chapter 06
00:35:17.365                : :Chapter 07
00:40:37.226                : :Chapter 08
00:43:37.781                : :Chapter 09
00:49:16.620                : :Chapter 10
00:53:22.407                : :Chapter 11
01:00:07.770                : :Chapter 12
01:06:43.582                : :Chapter 13
01:11:33.455                : :Chapter 14
01:16:33.589                : :Chapter 15
01:21:53.325                : :Chapter 16



Джерела та подяки: &



 Трекер:    Зареєстрований   

Завантажити / скачати фільм українською



відео для новачків



 Зареєстрований:   2020-12-25 20:32
 Розмір:   4.12 GB 
 Оцінка фільму:   10/10 (Голосів: 6)
 ЗАЛИШАЙТЕСЬ ЯКОМОГА ДОВШЕ НА РОЗДАЧІ! ЗАВАНТАЖИВ САМ - ДАЙ ЗАВАНТАЖИТИ ІНШИМ!
   
Інші релізи
   Геллфест / Hell Fest (2018) 1080p Ukr/Eng | Sub Eng staf777  2 / 0   6.67 GB   2020-12-26 21:43 
   Геллфест / Hell Fest (2018) AVC Ukr/Eng | Sub Eng igor911  4 / 0   1.8 GB   2020-12-25 20:32 
Ваш часовий пояс: GMT + 2 Години

Нова тема   Відповісти