Гаррі Поттер: Повна колекція / Harry Potter: The Complete 8-Film Collection (2001-2011) UHD Remux 4K 2160p HDR H.265 Ukr/Eng | Sub Ukr/Eng

Нові коментарі

Нова тема   Відповісти
Автор Повідомлення
sandman 
VIP


З нами з: 12.08.12
Востаннє: 17.01.21
Повідомлень: 419

2020-12-25 19:19  
Гаррі Поттер: Повна колекція / Harry Potter: The Complete 8-Film Collection (2001-2011) UHD Remux 4K 2160p HDR H.265 Ukr/Eng | Sub Ukr/Eng


Увага! Перед завантаженням переконайтесь, що ваш пристрій відтворення (та/або ПЗ) підтримує HEVC
Гаррі Поттер і філософський камінь / Harry Potter and the Sorcerer's Stone (2001) 4K UHD Remux 2160p HDR H.265 3хUkr/Eng | Sub Ukr/Eng
Гаррі Поттер і філософський камінь / Harry Potter and the Sorcerer's Stone (2001) 4K UHD Remux 2160p HDR H.265 3хUkr/Eng | Sub Ukr/Eng

Оригінальний та українські постери





Жанр: пригодницький, сімейний, фентезі
Країна: США, Велика Британія



Кінокомпанія: Warner Bros. Pictures, Heyday Films, 1492 Pictures
Режисер: Кріс Коламбус
Актори: Деніел Редкліфф, Руперт Ґрінт, Емма Вотсон, Том Фелтон, Річард Гарріс, Меґґі Сміт, Роббі Колтрейн, Алан Рікман та інші.

Сюжет:
Одинадцятирічний Гаррі Поттер, що втратив своїх батьків у ранньому дитинстві, живе з дядьком і тіткою. Він змушений терпіти їхнє погане ставлення до себе й жити під сходами. Але одного разу, хлопчик одержує запрошення вчитися в Гоґвортсі - школі для юних чарівників, де вчать чаклунству й магії. Виявляється, батьки Гаррі були чарівниками, але їх убив злий чаклун, що тепер намагається проникнути в Гоґвортс, щоб украсти захований там філософський камінь. Незважаючи на протести свого злого сімейства, Гаррі відправляється в школу, де буде вчитися чарівництву. Там він знайде нових цікавих друзів, які допоможуть йому довідатися правду про батьків. Гаррі також чекає багато чарівних і дивних пригод, а все його життя перетворитися на казку


Тривалість: 02:32:21
Якість: Remux 4K 2160p HDR
Відео:
кодек: H.265 (HEVC)
розмір кадру: 3840 х 2160
бітрейт: 60,7 Мбіт/сек
бітова глибина: 10 біт
кольоровий простір: BT.2020 (HDR)

Увага! Перед завантаженням переконайтесь, що ваш пристрій відтворення (та/або ПЗ) підтримує HEVC

Аудіо #1:
мова: українська
переклад: професійний дубльований
кодек: 2.0
бітрейт: 192 кб/с
Інформація про дубляж
Фільм дубльовано українською мовою студією «ТакТребаПродакшн» на замовлення національного онлайн-кінотеатру «SweetTV» в 2020 році.

Режисер дубляжу: Олена Мойжес
Звукорежисери запису: Андрій Єршов та Ярослав Зелінський
Звукорежисер постпродакшн: Сергій Ваніфатьєв
Ролі дублювали: Андрій Потапенко, Андрій Соболев, Анна Соболева, Вероніка Лук'яненко, Віктор Андрієнко, Володимир Терещук, Дмитро Зленко, Єва Головко, Євген Лебедин, Іван Вікулов, Ігор Журбенко, Лесь Гімбаржевський, Лесь Задніпровський, Лідія Муращенко, Михайло Войчук, Олександр Солодкий, Олексій Семенов, Руслана Писанка, Тимур Кухар, Юлія Перенчук та Ярослав Чорненький.
Аудіо #2:
мова: українська
переклад: багатоголосий закадровий
кодек: 2.0
бітрейт: 192 кб/с

Аудіо #3:
мова: українська
переклад: багатоголосий закадровий
кодек: 2.0
бітрейт: 192 кб/с

Аудіо #4:
мова: англійська
переклад: оригінал
кодек: -HD MA 7.1
бітрейт: 4342 кб/с

Аудіо #5:
мова: англійська
переклад: оригінал
кодек: TrueHD 5.1
бітрейт: 1555 кб/с

Аудіо #6:
мова: англійська
переклад: оригінал
кодек: 5.1 [Dolby Digital 5.1-EX]
бітрейт: 448 кб/с

Субтитри #1 (повні):
мова: українська
тип: програмні (м'які)
формат: *.srt

Субтитри #2 (стилізовані):
мова: українська
тип: програмні (м'які)
формат: *.

Субтитри #3 (повні - 4K UHD Blu-ray):
мова: англійська
тип: програмні (м'які)
формат: *.pgs

Субтитри #4 (повні):
мова: англійська
тип: програмні (м'які)
формат: *.srt

Субтитри #5 (стилізовані):
мова: англійська
тип: програмні (м'які)
формат: *.

Збережено оригінальні іменовані розділи, як на Blu-ray
Info

General
Unique ID : 102434345460368824261030449808228491152 (0x4D102327C4F8556D071D230B3EE41F90)
Complete name : /Volumes/MMEDIA/MOVIES/Harry Potter Complete Collection/1. Harry Potter and the Sorcerer's Stone (2001) UHDBDRMX2160pHDR.
Format :
Format version : Version 4
File size : 72.0 GiB
Duration : 2 h 32 min
Overall bit rate mode : Variable
Overall bit rate : 67.7 Mb/s
Movie name : Harry Potter and the Sorcerer's Stone (2001)
Encoded date : UTC 2020-12-21 16:12:35
Writing application : v51.0.0 ('I Wish') 64-bit
Writing library : libebml v1.4.0 + v1.6.2
Cover : Yes
Attachments : cover.jpeg / poster.jpg / LumosCyr_0.ttf / HarryPotterCyr_0.ttf

Video
ID : 1
Format : HEVC
Format/Info : High Efficiency Video Coding
Format profile : Main [email protected]@High
HDR format : SMPTE ST 2086, HDR10 compatible
Codec ID : V_MPEGH/ISO/HEVC
Duration : 2 h 32 min
Bit rate : 60.7 Mb/s
Width : 3 840 pixels
Height : 2 160 pixels
Display aspect ratio : 16:9
Frame rate mode : Constant
Frame rate : 23.976 (24000/1001) FPS
Color space : YUV
Chroma subsampling : 4:2:0 (Type 2)
Bit depth : 10 bits
Bits/(Pixel*Frame) : 0.305
Stream size : 64.6 GiB (90%)
Writing library : ATEME Titan File 3.8.3 (4.8.3.0)
Default : Yes
Forced : No
Color range : Limited
Color primaries : BT.2020
Transfer characteristics : PQ
Matrix coefficients : BT.2020 non-constant
Mastering display color primaries : Display P3
Mastering display luminance : min: 0.0050 cd/m2, max: 4000 cd/m2
Maximum Content Light Level : 552 cd/m2
Maximum Frame-Average Light Level : 190 cd/m2

Audio #1
ID : 2
Format : AC-3
Format/Info : Audio Coding 3
Commercial name : Dolby Digital
Codec ID : A_AC3
Duration : 2 h 32 min
Bit rate mode : Constant
Bit rate : 192 kb/s
Channel(s) : 2 channels
Channel layout : L R
Sampling rate : 48.0 kHz
Frame rate : 31.250 FPS (1536 SPF)
Compression mode : Lossy
Delay relative to video : -100 ms
Stream size : 209 MiB (0%)
Title : DUB [TTP-sweet.tv] [email protected]
Language : Ukrainian
Service kind : Complete Main
Default : Yes
Forced : Yes

Audio #2
ID : 3
Format : AC-3
Format/Info : Audio Coding 3
Commercial name : Dolby Digital
Codec ID : A_AC3
Duration : 2 h 32 min
Bit rate mode : Constant
Bit rate : 192 kb/s
Channel(s) : 2 channels
Channel layout : L R
Sampling rate : 48.0 kHz
Frame rate : 31.250 FPS (1536 SPF)
Compression mode : Lossy
Delay relative to video : -100 ms
Stream size : 209 MiB (0%)
Title : MVO [Новий] [email protected]
Language : Ukrainian
Service kind : Complete Main
Default : No
Forced : No

Audio #3
ID : 4
Format : AC-3
Format/Info : Audio Coding 3
Commercial name : Dolby Digital
Codec ID : A_AC3
Duration : 2 h 32 min
Bit rate mode : Constant
Bit rate : 192 kb/s
Channel(s) : 2 channels
Channel layout : L R
Sampling rate : 48.0 kHz
Frame rate : 31.250 FPS (1536 SPF)
Compression mode : Lossy
Delay relative to video : -100 ms
Stream size : 209 MiB (0%)
Title : MVO [1+1] [email protected]
Language : Ukrainian
Service kind : Complete Main
Default : No
Forced : No

Audio #4
ID : 5
Format : XLL X
Format/Info : Digital Theater Systems
Commercial name : -HD Master Audio
Codec ID : A_DTS
Duration : 2 h 32 min
Bit rate mode : Variable
Bit rate : 4 342 kb/s
Channel(s) : 8 channels
Channel(s)_Original : Object Based
ChannelLayout_Original : Object Based
Sampling rate : 48.0 kHz
Frame rate : 93.750 FPS (512 SPF)
Bit depth : 24 bits
Stream size : 4.62 GiB (6%)
Title : Original -HD MA [email protected]
Language : English
Default : No
Forced : No

Audio #5
ID : 6
Format : MLP FBA
Format/Info : Meridian Lossless Packing FBA
Commercial name : Dolby TrueHD
Codec ID : A_TRUEHD
Duration : 2 h 32 min
Bit rate mode : Variable
Bit rate : 1 555 kb/s
Maximum bit rate : 3 729 kb/s
Channel(s) : 6 channels
Channel layout : L R C LFE Ls Rs
Sampling rate : 48.0 kHz
Frame rate : 1 200.000 FPS (40 SPF)
Compression mode : Lossless
Delay relative to video : -100 ms
Stream size : 1.66 GiB (2%)
Title : Original Dolby TrueHD [email protected]
Language : English
Default : No
Forced : No

Audio #6
ID : 7
Format : AC-3
Format/Info : Audio Coding 3
Commercial name : Dolby Digital
Codec ID : A_AC3
Duration : 2 h 32 min
Bit rate mode : Constant
Bit rate : 448 kb/s
Channel(s) : 6 channels
Channel layout : L R C LFE Ls Rs
Sampling rate : 48.0 kHz
Frame rate : 31.250 FPS (1536 SPF)
Compression mode : Lossy
Delay relative to video : -100 ms
Stream size : 488 MiB (1%)
Title : Original Dolby Digital [email protected]
Language : English
Service kind : Complete Main
Default : No
Forced : No

Text #1
ID : 8
Format : UTF-8
Codec ID : S_TEXT/UTF8
Codec ID/Info : UTF-8 Plain Text
Duration : 1 h 28 min
Bit rate : 1 b/s
Count of elements : 20
Stream size : 830 Bytes (0%)
Title : UkrForced
Language : Ukrainian
Default : Yes
Forced : Yes

Text #2
ID : 9
Format : UTF-8
Codec ID : S_TEXT/UTF8
Codec ID/Info : UTF-8 Plain Text
Duration : 2 h 23 min
Bit rate : 71 b/s
Count of elements : 1250
Stream size : 75.2 KiB (0%)
Title : UkrFull
Language : Ukrainian
Default : No
Forced : No

Text #3
ID : 10
Format :
Codec ID : S_TEXT/
Codec ID/Info : Advanced Sub Station Alpha
Duration : 2 h 23 min
Bit rate : 95 b/s
Count of elements : 1250
Compression mode : Lossless
Stream size : 99.8 KiB (0%)
Title : UkrFullStyle
Language : Ukrainian
Default : No
Forced : No

Text #4
ID : 11
Format : PGS
Muxing mode : zlib
Codec ID : S_HDMV/PGS
Codec ID/Info : Picture based subtitle format used on BDs/HD-DVDs
Duration : 2 h 30 min
Bit rate : 22.9 kb/s
Count of elements : 2604
Stream size : 24.7 MiB (0%)
Title : EngFull [Blu-ray4kUHD]
Language : English
Default : No
Forced : No

Text #5
ID : 12
Format : UTF-8
Codec ID : S_TEXT/UTF8
Codec ID/Info : UTF-8 Plain Text
Duration : 2 h 31 min
Bit rate : 42 b/s
Count of elements : 1304
Stream size : 47.2 KiB (0%)
Title : EngFull
Language : English
Default : No
Forced : No

Text #6
ID : 13
Format :
Codec ID : S_TEXT/
Codec ID/Info : Advanced Sub Station Alpha
Duration : 2 h 31 min
Bit rate : 65 b/s
Count of elements : 1304
Compression mode : Lossless
Stream size : 72.9 KiB (0%)
Title : EngFullStyle
Language : English
Default : No
Forced : No

Menu
00:00:00.000 : en:Doorstep Delivery
00:04:05.411 : en:Vanishing Glass
00:08:11.157 : en:Letters From No One
00:12:17.403 : en:Keeper of the Keys
00:18:25.270 : en:Diagon Alley
00:21:43.635 : en:Gringotts
00:24:41.646 : en:Ollivanders
00:28:49.561 : en:The Boy Who Lived
00:31:05.196 : en:Platform 9 3/4
00:34:05.543 : en:Ron and Hermione
00:37:49.600 : en:Welcome to Hogwarts
00:41:29.487 : en:Sorting Hat
00:46:13.437 : en:Nick and Other Residents
00:50:29.026 : en:Potions and Parcels
00:55:04.301 : en:New Seeker
01:00:55.652 : en:Three-Headed Sentinel
01:03:43.986 : en:Facts and Feathers
01:07:48.230 : en:Mountain Troll
01:13:49.258 : en:Quidditch
01:20:17.979 : en:Interference Overcome
01:23:54.529 : en:Christmas Gift
01:28:32.473 : en:Cloaked in Darkness
01:31:42.497 : en:Mirror of Erised
01:36:42.630 : en:Norbert
01:42:34.815 : en:Forbidden Forest
01:49:05.038 : en:Up to Something
01:53:21.628 : en:Through the Trapdoor
01:58:09.749 : en:Wizards' Chess
02:03:44.750 : en:Sacrifice Play
02:06:56.108 : en:Man with Two Faces
02:10:55.347 : en:Magic Touch
02:14:18.884 : en:Mark of Love
02:17:29.574 : en:House Cup Winner
02:21:44.662 : en:Not Really Going Home
02:24:10.808 : en:End Credits
Скріншоти







Гаррі Поттер і таємна кімната / Harry Potter and the Chamber of Secrets (2002) 4K UHD Remux 2160p HDR H.265 3хUkr/Eng | Sub Ukr/Eng
Гаррі Поттер і таємна кімната / Harry Potter and the Chamber of Secrets (2002) 4K UHD Remux 2160p HDR H.265 3хUkr/Eng | Sub Ukr/Eng

Оригінальний та українські постери





Жанр: детектив, фентезі, пригодницький, сімейний
Країна: Велика Британія, США, Німеччина



Кінокомпанія: 1492 Pictures, Heyday Films, MIRACLE Productions GmbH & Co. KG, Warner Bros. Pictures
Режисер: Кріс Коламбус
Актори: Деніел Редкліфф, Руперт Ґрінт, Емма Вотсон, Річард Гріффітс, Фіона Шоу, Том Фелтон, Річард Гарріс, Роббі Колтрейн, Алан Рікман, Меґґі Сміт та інші.

Сюжет:
Гаррі Поттер переходить на другий курс Школи Магії і Чарів Гоґвортс. Ельф Добі попереджає Гаррі про небезпеку, яка чекає його там, і просить більше не повертатися в Гоґвортс. Гаррі не слідує пораді ельфа і стає свідком страшних подій, що розгортаються в школі. Один за іншим її мешканці виявляються під впливом злих чарів, що перетворюють їх у закляклі статуї. А Гаррі весь цей час чує зловісний голос, який, здавалося б, йде з нізвідки. Незабаром учні довідаються про існування страшної Таємної кімнати, відкрити яку в змозі тільки єдиний спадкоємець Салазара Слизерина. Усі думають, що Таємну кімнату відкрив саме Гаррі і звільнив ув'язнений у ній Жах, адже справа в тому, що Поттер розуміє змій і вміє говорити на їхній мові. Гаррі Поттер – парселмовець! А саме таким і був знаменитий Слизерин.


Тривалість: 02:40:56
Якість: Remux 4K 2160p HDR
Відео:
кодек: H.265 (HEVC)
розмір кадру: 3840 х 2160
бітрейт: 60,3 Мбіт/сек
бітова глибина: 10 біт
кольоровий простір: BT.2020 (HDR)

Увага! Перед завантаженням переконайтесь, що ваш пристрій відтворення (та/або ПЗ) підтримує HEVC

Аудіо #1:
мова: українська
переклад: професійний дубльований
кодек: 2.0
бітрейт: 192 кб/с
Інформація про дубляж
Фільм дубльовано українською мовою студією «ТакТребаПродакшн» на замовлення національного онлайн-кінотеатру «SweetTV» в 2020 році.

Режисер дубляжу: Олена Мойжес
Звукорежисери запису: Андрій Єршов та Ярослав Зелінський
Звукорежисер постпродакшн: Сергій Ваніфатьєв
Ролі дублювали: Андрій Потапенко, Андрій Соболев, Анна Соболева, Вероніка Лук'яненко, Віктор Андрієнко, Володимир Терещук, Дмитро Зленко, Єва Головко, Євген Лебедин, Іван Вікулов, Ігор Журбенко, Лесь Гімбаржевський, Лесь Задніпровський, Лідія Муращенко, Михайло Войчук, Олександр Солодкий, Олексій Семенов, Руслана Писанка, Юлія Перенчук, Юрій Кудрявець та Ярослав Чорненький.
Аудіо #2:
мова: українська
переклад: багатоголосий закадровий
кодек: 2.0
бітрейт: 192 кб/с

Аудіо #3:
мова: українська
переклад: багатоголосий закадровий
кодек: 2.0
бітрейт: 192 кб/с

Аудіо #4:
мова: англійська
переклад: оригінал
кодек: -HD MA 7.1
бітрейт: 4151 кб/с

Аудіо #5:
мова: англійська
переклад: оригінал
кодек: TrueHD 5.1
бітрейт: 1480 кб/с

Аудіо #6:
мова: англійська
переклад: оригінал
кодек: 5.1
бітрейт: 640 кб/с

Субтитри #1 (повні):
мова: українська
тип: програмні (м'які)
формат: *.srt

Субтитри #2 (стилізовані):
мова: українська
тип: програмні (м'які)
формат: *.

Субтитри #3 (повні - 4K UHD Blu-ray):
мова: англійська
тип: програмні (м'які)
формат: *.pgs

Субтитри #4 (повні):
мова: англійська
тип: програмні (м'які)
формат: *.srt

Субтитри #5 (стилізовані):
мова: англійська
тип: програмні (м'які)
формат: *.

Збережено оригінальні іменовані розділи, як на Blu-ray
Info

General
Unique ID : 224014826078480934799211125360029571942 (0xA887AFA7BB2DD16DB8656A82347F9B66)
Complete name : /Volumes/MMEDIA/MOVIES/Harry Potter Complete Collection/2. Harry Potter and the Chamber of Secrets (2002) UHDBDRMX2160pHDR.
Format :
Format version : Version 4
File size : 75.6 GiB
Duration : 2 h 40 min
Overall bit rate mode : Variable
Overall bit rate : 67.2 Mb/s
Movie name : Harry Potter and the Chamber of Secrets (2002)
Encoded date : UTC 2020-12-22 12:31:27
Writing application : v51.0.0 ('I Wish') 64-bit
Writing library : libebml v1.4.0 + v1.6.2
Cover : Yes
Attachments : cover.jpeg / poster.jpg / LumosCyr_0.ttf / HarryPotterCyr_0.ttf

Video
ID : 1
Format : HEVC
Format/Info : High Efficiency Video Coding
Format profile : Main [email protected]@High
HDR format : SMPTE ST 2086, HDR10 compatible
Codec ID : V_MPEGH/ISO/HEVC
Duration : 2 h 40 min
Bit rate : 60.3 Mb/s
Width : 3 840 pixels
Height : 2 160 pixels
Display aspect ratio : 16:9
Frame rate mode : Constant
Frame rate : 23.976 (24000/1001) FPS
Color space : YUV
Chroma subsampling : 4:2:0 (Type 2)
Bit depth : 10 bits
Bits/(Pixel*Frame) : 0.303
Stream size : 67.8 GiB (90%)
Writing library : ATEME Titan File 3.8.3 (4.8.3.0)
Default : Yes
Forced : No
Color range : Limited
Color primaries : BT.2020
Transfer characteristics : PQ
Matrix coefficients : BT.2020 non-constant
Mastering display color primaries : Display P3
Mastering display luminance : min: 0.0050 cd/m2, max: 4000 cd/m2
Maximum Content Light Level : 2856 cd/m2
Maximum Frame-Average Light Level : 222 cd/m2

Audio #1
ID : 2
Format : AC-3
Format/Info : Audio Coding 3
Commercial name : Dolby Digital
Codec ID : A_AC3
Duration : 2 h 40 min
Bit rate mode : Constant
Bit rate : 192 kb/s
Channel(s) : 2 channels
Channel layout : L R
Sampling rate : 48.0 kHz
Frame rate : 31.250 FPS (1536 SPF)
Compression mode : Lossy
Stream size : 221 MiB (0%)
Title : DUB [TTP-sweet.tv] [email protected]
Language : Ukrainian
Service kind : Complete Main
Default : Yes
Forced : Yes

Audio #2
ID : 3
Format : AC-3
Format/Info : Audio Coding 3
Commercial name : Dolby Digital
Codec ID : A_AC3
Duration : 2 h 40 min
Bit rate mode : Constant
Bit rate : 192 kb/s
Channel(s) : 2 channels
Channel layout : L R
Sampling rate : 48.0 kHz
Frame rate : 31.250 FPS (1536 SPF)
Compression mode : Lossy
Stream size : 221 MiB (0%)
Title : MVO [Новий] [email protected]
Language : Ukrainian
Service kind : Complete Main
Default : No
Forced : No

Audio #3
ID : 4
Format : AC-3
Format/Info : Audio Coding 3
Commercial name : Dolby Digital
Codec ID : A_AC3
Duration : 2 h 40 min
Bit rate mode : Constant
Bit rate : 192 kb/s
Channel(s) : 2 channels
Channel layout : L R
Sampling rate : 48.0 kHz
Frame rate : 31.250 FPS (1536 SPF)
Compression mode : Lossy
Stream size : 221 MiB (0%)
Title : MVO [1+1] [email protected]
Language : Ukrainian
Service kind : Complete Main
Default : No
Forced : No

Audio #4
ID : 5
Format : XLL X
Format/Info : Digital Theater Systems
Commercial name : -HD Master Audio
Codec ID : A_DTS
Duration : 2 h 40 min
Bit rate mode : Variable
Bit rate : 4 151 kb/s
Channel(s) : 8 channels
Channel(s)_Original : Object Based
ChannelLayout_Original : Object Based
Sampling rate : 48.0 kHz
Frame rate : 93.750 FPS (512 SPF)
Bit depth : 24 bits
Stream size : 4.67 GiB (6%)
Title : Original -HD MA [email protected]
Language : English
Default : No
Forced : No

Audio #5
ID : 6
Format : MLP FBA
Format/Info : Meridian Lossless Packing FBA
Commercial name : Dolby TrueHD
Codec ID : A_TRUEHD
Duration : 2 h 40 min
Bit rate mode : Variable
Bit rate : 1 480 kb/s
Maximum bit rate : 3 366 kb/s
Channel(s) : 6 channels
Channel layout : L R C LFE Ls Rs
Sampling rate : 48.0 kHz
Frame rate : 1 200.000 FPS (40 SPF)
Compression mode : Lossless
Stream size : 1.66 GiB (2%)
Title : Original Dolby TrueHD [email protected]
Language : English
Default : No
Forced : No

Audio #6
ID : 7
Format : AC-3
Format/Info : Audio Coding 3
Commercial name : Dolby Digital
Codec ID : A_AC3
Duration : 2 h 40 min
Bit rate mode : Constant
Bit rate : 640 kb/s
Channel(s) : 6 channels
Channel layout : L R C LFE Ls Rs
Sampling rate : 48.0 kHz
Frame rate : 31.250 FPS (1536 SPF)
Compression mode : Lossy
Stream size : 736 MiB (1%)
Title : Original Dolby Digital EX [email protected]
Language : English
Service kind : Complete Main
Default : No
Forced : No

Text #1
ID : 8
Format : UTF-8
Codec ID : S_TEXT/UTF8
Codec ID/Info : UTF-8 Plain Text
Duration : 2 h 40 min
Bit rate : 75 b/s
Count of elements : 1521
Stream size : 89.2 KiB (0%)
Title : UkrFull
Language : Ukrainian
Default : No
Forced : No

Text #2
ID : 9
Format :
Codec ID : S_TEXT/
Codec ID/Info : Advanced Sub Station Alpha
Duration : 2 h 40 min
Bit rate : 101 b/s
Count of elements : 1525
Compression mode : Lossless
Stream size : 119 KiB (0%)
Title : UkrFullStyle
Language : Ukrainian
Default : No
Forced : No

Text #3
ID : 10
Format : PGS
Muxing mode : zlib
Codec ID : S_HDMV/PGS
Codec ID/Info : Picture based subtitle format used on BDs/HD-DVDs
Duration : 2 h 39 min
Bit rate : 26.9 kb/s
Count of elements : 3158
Stream size : 30.7 MiB (0%)
Title : EngFull [Blu-ray4kUHD]
Language : English
Default : No
Forced : No

Text #4
ID : 11
Format : UTF-8
Codec ID : S_TEXT/UTF8
Codec ID/Info : UTF-8 Plain Text
Duration : 2 h 39 min
Bit rate : 48 b/s
Count of elements : 1509
Stream size : 56.8 KiB (0%)
Title : EngFull
Language : English
Default : No
Forced : No

Text #5
ID : 12
Format :
Codec ID : S_TEXT/
Codec ID/Info : Advanced Sub Station Alpha
Duration : 2 h 39 min
Bit rate : 74 b/s
Count of elements : 1509
Compression mode : Lossless
Stream size : 86.8 KiB (0%)
Title : EngFullStyle
Language : English
Default : No
Forced : No

Menu
00:00:00.000 : en:In a Cage
00:03:01.014 : en:Dobby's Warning
00:07:55.558 : en:Car Rescue
00:10:40.640 : en:The Burrow
00:14:07.096 : en:To Diagon Aley
00:17:57.743 : en:Flourish and Blotts
00:22:16.126 : en:Flying to Hogwarts
00:25:49.631 : en:Whomping Willow
00:28:50.353 : en:Not Expelled...Today
00:31:07.991 : en:Mandrakes; Ron's Howler
00:35:14.195 : en:Gilderoy Lockhart
00:38:00.403 : en:Mudbloods and Murmurs
00:42:47.982 : en:Writing on the Wall
00:48:16.143 : en:About the Chamber
00:52:16.133 : en:Rogue Bludger
00:57:56.973 : en:No Longer Safe
01:03:13.873 : en:Dueling Club
01:07:50.524 : en:A Parselmouth
01:11:56.145 : en:Nothing to Tell
01:17:22.387 : en:Polyjuice Potion
01:21:33.847 : en:Harry and Ron Transformed
01:25:39.926 : en:The Diary
01:29:42.251 : en:Tom Riddle
01:33:30.354 : en:Petrified
01:37:42.898 : en:Cornelius Fudge
01:42:49.079 : en:Aragog
01:47:01.623 : en:Spider Attack
01:51:07.994 : en:Missing
01:55:26.210 : en:Chamber of Secrets
02:00:53.287 : en:Backfire
02:04:09.775 : en:Heir of Slytherin
02:09:32.306 : en:The Basilisk
02:14:32.439 : en:Healing Powers
02:18:05.944 : en:Out of the Hat
02:21:20.221 : en:Dobby's Reward
02:26:35.453 : en:Welcome Back
02:31:43.094 : en:End Credits
Скріншоти







Гаррі Поттер і в'язень Азкабану / Harry Potter and the Prisoner of Azkaban (2004) 4K UHD Remux 2160p HDR H.265 4хUkr/Eng | Sub Ukr/Eng
Гаррі Поттер і в'язень Азкабану / Harry Potter and the Prisoner of Azkaban (2004) 4K UHD Remux 2160p HDR H.265 4хUkr/Eng | Sub Ukr/Eng

Оригінальний та українські постери





Жанр: детектив, фентезі, пригодницький, сімейний
Країна: Велика Британія, США



Кінокомпанія: Warner Bros. Pictures, 1492 Pictures, Heyday Films, P of A Productions Limited
Режисер: Альфонсо Куарон
Актори: Деніел Редкліфф, Руперт Ґрінт, Емма Вотсон, Том Фелтон, Ґері Олдмен, Девід Т'юліс, Майкл Ґембон, Алан Рікман, Роббі Колтрейн, Меґґі Сміт та інші.

Сюжет:
Гаррі Поттер, Рон і Герміона продовжують своє навчання в Школі Магії і Чарів Гоґвортс. Новий семестр у Гоґвортсі обіцяє багато пригод і задоволень! Ви дізнаєтеся, як Гаррі освоює нові премудрості чарівництва, приручає гіпогріфа Бакбика, б'ється з ховчиком, а також потайки проникає в село Гоґсмід. Але новий навчальний рік, на жаль, обіцяє безліч небезпек. У Гоґвортс пробрався вбивця, на рахунку якого безліч життів і людей, і чарівників. Для охорони школи запрошені лиховісні вартові в’язниці Азкабан – дементори. Гаррі та його друзі дуже скоро з'ясовують, чому всі чарівники бояться дементорів. Поттер вирішує знайти вбивцю. З Гаррі висмоктують душу дементори, а маг Сіріус Блек, втікши з Азкабану, відкриє сезон полювання на нашого юного героя! Тепер Гаррі в небезпеці навіть за стінами своєї чарівної школи, навіть в оточенні друзів! Гаррі, Рон і Герміона пускаються в нові авантюри: друзям доведеться подолати часові межі, відкрити таємницю минулого Гаррі і викрити зрадника.


Тривалість: 02:21:42
Якість: Remux 4K 2160p HDR
Відео:
кодек: H.265 (HEVC)
розмір кадру: 3840 х 2160
бітрейт: 59,8 Мбіт/сек
бітова глибина: 10 біт
кольоровий простір: BT.2020 (HDR)

Увага! Перед завантаженням переконайтесь, що ваш пристрій відтворення (та/або ПЗ) підтримує HEVC

Аудіо #1:
мова: українська
переклад: професійний дубльований
кодек: 2.0
бітрейт: 192 кб/с
Інформація про дубляж
Фільм дубльовано українською мовою студією «ТакТребаПродакшн» на замовлення національного онлайн-кінотеатру «SweetTV» в 2020 році.

Режисер дубляжу: Олена Мойжес
Звукорежисери запису: Олександр Кривов'яз та Дмитро Бойко
Звукорежисер постпродакшн: Сергій Ваніфатьєв
Ролі дублювали: Андрій Соболев, Анна Соболева, Вероніка Лук'яненко, Віктор Андрієнко, Володимир Терещук, Дарина Муращенко, Дмитро Зленко, Євген Локтіонов, Іван Вікулов, Ігор Журбенко, Лесь Гімбаржевський, Лесь Задніпровський, Лідія Муращенко, Михайло Войчук, Наталя Задніпровська, Олександр Солодкий, Олексій Семенов, Руслана Писанка, Юлія Перенчук, Юрій Кудрявець та Ярослав Чорненький.
Аудіо #2:
мова: українська
переклад: багатоголосий закадровий
кодек: 2.0
бітрейт: 192 кб/с

Аудіо #3:
мова: українська
переклад: багатоголосий закадровий
кодек: 2.0
бітрейт: 192 кб/с

Аудіо #4:
мова: українська
переклад: багатоголосий закадровий
кодек: 2.0
бітрейт: 192 кб/с

Аудіо #5:
мова: англійська
переклад: оригінал
кодек: -HD MA 7.1
бітрейт: 4227 кб/с

Аудіо #6:
мова: англійська
переклад: оригінал
кодек: TrueHD 5.1
бітрейт: 1 558 кб/с

Аудіо #7:
мова: англійська
переклад: оригінал
кодек: 5.1
бітрейт: 640 кб/с

Субтитри #1 (повні):
мова: українська
тип: програмні (м'які)
формат: *.srt

Субтитри #2 (стилізовані):
мова: українська
тип: програмні (м'які)
формат: *.

Субтитри #3 (повні - 4K UHD Blu-ray):
мова: англійська
тип: програмні (м'які)
формат: *.pgs

Субтитри #4 (SDH):
мова: англійська
тип: програмні (м'які)
формат: *.srt

Субтитри #5 (стилізовані):
мова: англійська
тип: програмні (м'які)
формат: *.

Збережено оригінальні іменовані розділи, як на Blu-ray
Info

General
Unique ID : 99159996741935413011582729363438867743 (0x4A99854CAA365D0A4330D12EAC62951F)
Complete name : /Volumes/MMEDIA/MOVIES/Harry Potter Complete Collection/3. Harry Potter and the Prisoner of Azkaban (2004) UHDBDRMX2160pHDR.
Format :
Format version : Version 4
File size : 66.3 GiB
Duration : 2 h 21 min
Overall bit rate mode : Variable
Overall bit rate : 67.0 Mb/s
Movie name : Harry Potter and the Prisoner of Azkaban (2004)
Encoded date : UTC 2020-12-22 18:29:36
Writing application : v51.0.0 ('I Wish') 64-bit
Writing library : libebml v1.4.0 + v1.6.2
Cover : Yes
Attachments : cover.jpeg / poster.jpg / LumosCyr_0.ttf / HarryPotterCyr_0.ttf

Video
ID : 1
Format : HEVC
Format/Info : High Efficiency Video Coding
Format profile : Main [email protected]@High
Codec ID : V_MPEGH/ISO/HEVC
Duration : 2 h 21 min
Bit rate : 59.8 Mb/s
Width : 3 840 pixels
Height : 2 160 pixels
Display aspect ratio : 16:9
Frame rate mode : Constant
Frame rate : 23.976 (24000/1001) FPS
Color space : YUV
Chroma subsampling : 4:2:0 (Type 2)
Bit depth : 10 bits
Bits/(Pixel*Frame) : 0.300
Stream size : 59.1 GiB (89%)
Writing library : ATEME Titan KFE 3.7.3 (4.7.3.1001)
Default : Yes
Forced : No
Color range : Limited
Color primaries : BT.2020
Transfer characteristics : PQ
Matrix coefficients : BT.2020 non-constant

Audio #1
ID : 2
Format : AC-3
Format/Info : Audio Coding 3
Commercial name : Dolby Digital
Codec ID : A_AC3
Duration : 2 h 21 min
Bit rate mode : Constant
Bit rate : 192 kb/s
Channel(s) : 2 channels
Channel layout : L R
Sampling rate : 48.0 kHz
Frame rate : 31.250 FPS (1536 SPF)
Compression mode : Lossy
Delay relative to video : -26 ms
Stream size : 195 MiB (0%)
Title : DUB [TTP-sweet.tv] [email protected]
Language : Ukrainian
Service kind : Complete Main
Default : Yes
Forced : Yes

Audio #2
ID : 3
Format : AC-3
Format/Info : Audio Coding 3
Commercial name : Dolby Digital
Codec ID : A_AC3
Duration : 2 h 21 min
Bit rate mode : Constant
Bit rate : 192 kb/s
Channel(s) : 2 channels
Channel layout : L R
Sampling rate : 48.0 kHz
Frame rate : 31.250 FPS (1536 SPF)
Compression mode : Lossy
Delay relative to video : -26 ms
Stream size : 195 MiB (0%)
Title : MVO [Новий] [email protected]
Language : Ukrainian
Service kind : Complete Main
Default : No
Forced : No

Audio #3
ID : 4
Format : AC-3
Format/Info : Audio Coding 3
Commercial name : Dolby Digital
Codec ID : A_AC3
Duration : 2 h 21 min
Bit rate mode : Constant
Bit rate : 192 kb/s
Channel(s) : 2 channels
Channel layout : L R
Sampling rate : 48.0 kHz
Frame rate : 31.250 FPS (1536 SPF)
Compression mode : Lossy
Delay relative to video : -26 ms
Stream size : 195 MiB (0%)
Title : MVO [1+1] [email protected]
Language : Ukrainian
Service kind : Complete Main
Default : No
Forced : No

Audio #4
ID : 5
Format : AC-3
Format/Info : Audio Coding 3
Commercial name : Dolby Digital
Codec ID : A_AC3
Duration : 2 h 21 min
Bit rate mode : Constant
Bit rate : 192 kb/s
Channel(s) : 2 channels
Channel layout : L R
Sampling rate : 48.0 kHz
Frame rate : 31.250 FPS (1536 SPF)
Compression mode : Lossy
Delay relative to video : -26 ms
Stream size : 195 MiB (0%)
Title : MVO [Інтер] [email protected]
Language : Ukrainian
Service kind : Complete Main
Default : No
Forced : No

Audio #5
ID : 6
Format : XLL X
Format/Info : Digital Theater Systems
Commercial name : -HD Master Audio
Codec ID : A_DTS
Duration : 2 h 21 min
Bit rate mode : Variable
Bit rate : 4 228 kb/s
Channel(s) : 8 channels
Channel(s)_Original : Object Based
ChannelLayout_Original : Object Based
Sampling rate : 48.0 kHz
Frame rate : 93.750 FPS (512 SPF)
Bit depth : 24 bits
Delay relative to video : -17 ms
Stream size : 4.18 GiB (6%)
Title : Original -HD MA [email protected]
Language : English
Default : No
Forced : No

Audio #6
ID : 7
Format : MLP FBA
Format/Info : Meridian Lossless Packing FBA
Commercial name : Dolby TrueHD
Codec ID : A_TRUEHD
Duration : 2 h 21 min
Bit rate mode : Variable
Bit rate : 1 558 kb/s
Maximum bit rate : 2 760 kb/s
Channel(s) : 6 channels
Channel layout : L R C LFE Ls Rs
Sampling rate : 48.0 kHz
Frame rate : 1 200.000 FPS (40 SPF)
Compression mode : Lossless
Delay relative to video : -26 ms
Stream size : 1.54 GiB (2%)
Title : Original Dolby TrueHD [email protected]
Language : English
Default : No
Forced : No

Audio #7
ID : 8
Format : AC-3
Format/Info : Audio Coding 3
Commercial name : Dolby Digital
Codec ID : A_AC3
Duration : 2 h 21 min
Bit rate mode : Constant
Bit rate : 640 kb/s
Channel(s) : 6 channels
Channel layout : L R C LFE Ls Rs
Sampling rate : 48.0 kHz
Frame rate : 31.250 FPS (1536 SPF)
Compression mode : Lossy
Delay relative to video : -26 ms
Stream size : 649 MiB (1%)
Title : Original Dolby Digital EX [email protected]
Language : English
Service kind : Complete Main
Default : No
Forced : No

Text #1
ID : 9
Format : UTF-8
Codec ID : S_TEXT/UTF8
Codec ID/Info : UTF-8 Plain Text
Duration : 2 h 20 min
Bit rate : 80 b/s
Count of elements : 1422
Stream size : 83.3 KiB (0%)
Title : UkrFull
Language : Ukrainian
Default : No
Forced : No

Text #2
ID : 10
Format :
Codec ID : S_TEXT/
Codec ID/Info : Advanced Sub Station Alpha
Duration : 2 h 20 min
Bit rate : 108 b/s
Count of elements : 1422
Compression mode : Lossless
Stream size : 112 KiB (0%)
Title : UkrFullStyle
Language : Ukrainian
Default : No
Forced : No

Text #3
ID : 11
Format : PGS
Muxing mode : zlib
Codec ID : S_HDMV/PGS
Codec ID/Info : Picture based subtitle format used on BDs/HD-DVDs
Duration : 2 h 21 min
Bit rate : 30.2 kb/s
Count of elements : 3250
Stream size : 30.5 MiB (0%)
Title : EngFull [Blu-ray4kUHD]
Language : English
Default : No
Forced : No

Text #4
ID : 12
Format : UTF-8
Codec ID : S_TEXT/UTF8
Codec ID/Info : UTF-8 Plain Text
Duration : 2 h 21 min
Bit rate : 54 b/s
Count of elements : 1611
Stream size : 56.0 KiB (0%)
Title : EngFullSDH
Language : English
Default : No
Forced : No

Text #5
ID : 13
Format :
Codec ID : S_TEXT/
Codec ID/Info : Advanced Sub Station Alpha
Duration : 2 h 20 min
Bit rate : 78 b/s
Count of elements : 1417
Compression mode : Lossless
Stream size : 81.3 KiB (0%)
Title : EngFullStyle
Language : English
Default : No
Forced : No

Menu
00:00:00.000 : en:Under Covers Prologue
00:01:40.100 : en:Aunt Marge's Big Mistake
00:06:36.229 : en:The Knight Bus
00:12:45.931 : en:The Leaky Cauldron
00:14:52.516 : en:The Monster Book of Monsters
00:16:12.513 : en:In Grave Danger
00:18:56.218 : en:The Dementor
00:23:50.387 : en:Welcome and Warning
00:28:50.729 : en:Tea Leaves
00:31:21.838 : en:Buckbeak
00:38:50.161 : en:Boggart in the Wardrobe
00:44:45.307 : en:Talent for Trouble
00:47:37.813 : en:Flight of the Fat Lady
00:49:39.935 : en:Substitute Teacher
00:53:42.844 : en:Grim Defeat
00:57:28.403 : en:The Marauder's Map
01:01:23.721 : en:Who's There
01:03:22.924 : en:I Hope He Finds Me
01:07:10.985 : en:The Patronus
01:11:53.475 : en:Seeing the Impossible
01:19:10.078 : en:Professor Trelawney's Prediction
01:22:29.945 : en:Witnesses to an Execution
01:27:30.870 : en:The Whomping Willow
01:30:13.366 : en:Sirius Black
01:34:19.028 : en:Peter Pettigrew
01:36:56.894 : en:Friends Become Foes
01:42:24.471 : en:The Dementor's Kiss
01:45:40.334 : en:Hermione's Secret
01:50:03.597 : en:Onlookers to the Rescue
01:55:33.343 : en:Saving Lives
02:00:07.408 : en:Truly Seen, Truly Free
02:03:16.055 : en:Two Places at Once
02:06:02.513 : en:Mischief Managed
02:08:42.923 : en:The Firebolt
02:09:47.404 : en:End Credits Map
Скріншоти







Гаррі Поттер і келих вогню / Harry Potter and the Goblet of Fire (2005) 4K UHD Remux 2160p HDR H.265 3хUkr/Eng | Sub Ukr/Eng
Гаррі Поттер і келих вогню / Harry Potter and the Goblet of Fire (2005) 4K UHD Remux 2160p HDR H.265 3хUkr/Eng | Sub Ukr/Eng

Оригінальний та українські постери





Жанр: детектив, фентезі, пригодницький, сімейний
Країна: Велика Британія, США



Кінокомпанія: Warner Bros. Pictures, Heyday Films, Patalex IV Productions Limited
Режисер: Майк Ньюелл
Актори: Деніел Редкліфф, Руперт Ґрінт, Емма Вотсон, Том Фелтон, Роберт Патінсон, Ральф Файнс, Алан Рікман, Майкл Ґембон, Меґґі Сміт, Ґері Олдмен / Gary Oldman та інші.

Сюжет:
Гаррі Поттер, Рон и Герміона повертаються на четвертий курс до Школи Магії і Чарів Гоґвортс. При таємничих обставинах Гаррі відібрано до числа учасників небезпечного змагання – Турніру Трьох Чарівників, однак проблема в тому, що всі його суперники – набагато старші і сильніші. До того ж, знаки вказують на повернення Лорда Волдеморта. Дуже скоро Гаррі належить поборотися не лише за перемогу в змаганні, але й, перед усім, за власне життя.


Тривалість: 02:32:21
Якість: Remux 4K 2160p HDR
Відео:
кодек: H.265 (HEVC)
розмір кадру: 3840 х 2160
бітрейт: 43,9 Мбіт/сек
бітова глибина: 10 біт
кольоровий простір: BT.2020 (HDR)

Увага! Перед завантаженням переконайтесь, що ваш пристрій відтворення (та/або ПЗ) підтримує HEVC

Аудіо #1:
мова: українська
переклад: професійний дубльований
кодек: 2.0
бітрейт: 192 кб/с
Інформація про дубляж
Фільм дубльовано українською мовою студією «ТакТребаПродакшн» на замовлення національного онлайн-кінотеатру «SweetTV» в 2020 році.

Режисер дубляжу: Олена Мойжес
Звукорежисери запису: Олександр Кривовяз та Галина Жалізняк
Звукорежисер постпродакшн: Сергій Ваніфатьєв
Ролі дублювали: Андрій Соболев, Андрій Альохін, Анна Соболева, Вероніка Лук'яненко, Віктор Андрієнко, Володимир Терещук, Вячеслав Скорик, Дарина Муращенко, Євген Лебедин, Євген Локтіонов, Ігор Журбенко, Лесь Гімбаржевський, Лесь Задніпровський, Лідія Муращенко, Марія Полякова, Михайло Войчук, Наталя Задніпровська, Олександр Солодкий, Олексій Семенов, Руслана Писанка, Юлія Перенчук, Юрій Кудрявець та Ярослав Чорненький.
Аудіо #2:
мова: українська
переклад: багатоголосий закадровий
кодек: 2.0
бітрейт: 192 кб/с

Аудіо #3:
мова: українська
переклад: багатоголосий закадровий
кодек: 2.0
бітрейт: 192 кб/с

Аудіо #4:
мова: англійська
переклад: оригінал
кодек: -HD MA 7.1
бітрейт: 4051 кб/с

Аудіо #5:
мова: англійська
переклад: оригінал
кодек: TrueHD 5.1
бітрейт: 1658 кб/с

Аудіо #6:
мова: англійська
переклад: оригінал
кодек: 5.1 [Dolby Digital 5.1-EX]
бітрейт: 448 кб/с

Субтитри #1 (повні):
мова: українська
тип: програмні (м'які)
формат: *.srt

Субтитри #2 (стилізовані):
мова: українська
тип: програмні (м'які)
формат: *.

Субтитри #3 (повні - 4K UHD Blu-ray):
мова: англійська
тип: програмні (м'які)
формат: *.pgs

Субтитри #4 (SDH):
мова: англійська
тип: програмні (м'які)
формат: *.srt

Субтитри #5 (стилізовані):
мова: англійська
тип: програмні (м'які)
формат: *.

Збережено оригінальні іменовані розділи, як на Blu-ray
Info

General
Unique ID : 296916877134508279795282921221683420705 (0xDF601C478C2E9D8A52EF631AC5C81E21)
Complete name : /Volumes/MMEDIA/MOVIES/Harry Potter Complete Collection/4. Harry Potter and the Goblet of Fire (2005) UHDBDRMX2160pHDR.
Format :
Format version : Version 4
File size : 55.6 GiB
Duration : 2 h 37 min
Overall bit rate mode : Variable
Overall bit rate : 50.7 Mb/s
Movie name : Harry Potter and the Goblet of Fire (2005)
Encoded date : UTC 2020-12-23 10:39:55
Writing application : v51.0.0 ('I Wish') 64-bit
Writing library : libebml v1.4.0 + v1.6.2
Cover : Yes
Attachments : cover.jpeg / poster.jpg / LumosCyr_0.ttf / HarryPotterCyr_0.ttf

Video
ID : 1
Format : HEVC
Format/Info : High Efficiency Video Coding
Format profile : Main [email protected]@High
HDR format : SMPTE ST 2086, HDR10 compatible
Codec ID : V_MPEGH/ISO/HEVC
Duration : 2 h 37 min
Bit rate : 43.9 Mb/s
Width : 3 840 pixels
Height : 2 160 pixels
Display aspect ratio : 16:9
Frame rate mode : Constant
Frame rate : 23.976 (24000/1001) FPS
Color space : YUV
Chroma subsampling : 4:2:0 (Type 2)
Bit depth : 10 bits
Bits/(Pixel*Frame) : 0.221
Stream size : 48.1 GiB (87%)
Writing library : ATEME Titan File 3.8.3 (4.8.3.0)
Default : Yes
Forced : No
Color range : Limited
Color primaries : BT.2020
Transfer characteristics : PQ
Matrix coefficients : BT.2020 non-constant
Mastering display color primaries : Display P3
Mastering display luminance : min: 0.0050 cd/m2, max: 4000 cd/m2
Maximum Content Light Level : 2848 cd/m2
Maximum Frame-Average Light Level : 617 cd/m2

Audio #1
ID : 2
Format : AC-3
Format/Info : Audio Coding 3
Commercial name : Dolby Digital
Codec ID : A_AC3
Duration : 2 h 37 min
Bit rate mode : Constant
Bit rate : 192 kb/s
Channel(s) : 2 channels
Channel layout : L R
Sampling rate : 48.0 kHz
Frame rate : 31.250 FPS (1536 SPF)
Compression mode : Lossy
Stream size : 216 MiB (0%)
Title : DUB [TTP-sweet.tv] [email protected]
Language : Ukrainian
Service kind : Complete Main
Default : Yes
Forced : Yes

Audio #2
ID : 3
Format : AC-3
Format/Info : Audio Coding 3
Commercial name : Dolby Digital
Codec ID : A_AC3
Duration : 2 h 37 min
Bit rate mode : Constant
Bit rate : 192 kb/s
Channel(s) : 2 channels
Channel layout : L R
Sampling rate : 48.0 kHz
Frame rate : 31.250 FPS (1536 SPF)
Compression mode : Lossy
Stream size : 216 MiB (0%)
Title : MVO [Новий] [email protected]
Language : Ukrainian
Service kind : Complete Main
Default : No
Forced : No

Audio #3
ID : 4
Format : AC-3
Format/Info : Audio Coding 3
Commercial name : Dolby Digital
Codec ID : A_AC3
Duration : 2 h 37 min
Bit rate mode : Constant
Bit rate : 192 kb/s
Channel(s) : 2 channels
Channel layout : L R
Sampling rate : 48.0 kHz
Frame rate : 31.250 FPS (1536 SPF)
Compression mode : Lossy
Stream size : 216 MiB (0%)
Title : MVO [Інтер] [email protected]
Language : Ukrainian
Service kind : Complete Main
Default : No
Forced : No

Audio #4
ID : 5
Format : XLL X
Format/Info : Digital Theater Systems
Commercial name : -HD Master Audio
Codec ID : A_DTS
Duration : 2 h 37 min
Bit rate mode : Variable
Bit rate : 4 051 kb/s
Channel(s) : 8 channels
Channel(s)_Original : Object Based
ChannelLayout_Original : Object Based
Sampling rate : 48.0 kHz
Frame rate : 93.750 FPS (512 SPF)
Bit depth : 24 bits
Stream size : 4.45 GiB (8%)
Title : Original -HD MA [email protected]
Language : English
Default : No
Forced : No

Audio #5
ID : 6
Format : MLP FBA
Format/Info : Meridian Lossless Packing FBA
Commercial name : Dolby TrueHD
Codec ID : A_TRUEHD
Duration : 2 h 37 min
Bit rate mode : Variable
Bit rate : 1 658 kb/s
Maximum bit rate : 3 069 kb/s
Channel(s) : 6 channels
Channel layout : L R C LFE Ls Rs
Sampling rate : 48.0 kHz
Frame rate : 1 200.000 FPS (40 SPF)
Compression mode : Lossless
Stream size : 1.82 GiB (3%)
Title : Original Dolby TrueHD [email protected]
Language : English
Default : No
Forced : No

Audio #6
ID : 7
Format : AC-3
Format/Info : Audio Coding 3
Commercial name : Dolby Digital
Codec ID : A_AC3
Duration : 2 h 37 min
Bit rate mode : Constant
Bit rate : 448 kb/s
Channel(s) : 6 channels
Channel layout : L R C LFE Ls Rs
Sampling rate : 48.0 kHz
Frame rate : 31.250 FPS (1536 SPF)
Compression mode : Lossy
Stream size : 503 MiB (1%)
Title : Original Dolby Digital EX [email protected]
Language : English
Service kind : Complete Main
Default : No
Forced : No

Text #1
ID : 8
Format : UTF-8
Codec ID : S_TEXT/UTF8
Codec ID/Info : UTF-8 Plain Text
Duration : 2 h 36 min
Bit rate : 72 b/s
Count of elements : 1529
Stream size : 82.3 KiB (0%)
Title : UkrFull
Language : Ukrainian
Default : No
Forced : No

Text #2
ID : 9
Format :
Codec ID : S_TEXT/
Codec ID/Info : Advanced Sub Station Alpha
Duration : 2 h 36 min
Bit rate : 98 b/s
Count of elements : 1529
Compression mode : Lossless
Stream size : 113 KiB (0%)
Title : UkrFullStyle
Language : Ukrainian
Default : No
Forced : No

Text #3
ID : 10
Format : PGS
Muxing mode : zlib
Codec ID : S_HDMV/PGS
Codec ID/Info : Picture based subtitle format used on BDs/HD-DVDs
Duration : 2 h 36 min
Bit rate : 27.1 kb/s
Count of elements : 3608
Stream size : 30.3 MiB (0%)
Title : EngFull [Blu-ray4kUHD]
Language : English
Default : No
Forced : No

Text #4
ID : 11
Format : UTF-8
Codec ID : S_TEXT/UTF8
Codec ID/Info : UTF-8 Plain Text
Duration : 2 h 36 min
Bit rate : 48 b/s
Count of elements : 1798
Stream size : 55.7 KiB (0%)
Title : EngFullSDH
Language : English
Default : No
Forced : No

Text #5
ID : 12
Format :
Codec ID : S_TEXT/
Codec ID/Info : Advanced Sub Station Alpha
Duration : 2 h 21 min
Bit rate : 80 b/s
Count of elements : 1554
Compression mode : Lossless
Stream size : 83.1 KiB (0%)
Title : EngFullStyle
Language : English
Default : No
Forced : No

Menu
00:00:00.000 : en:The Riddle House
00:03:46.559 : en:The Hungrian Horntail
00:06:09.369 : en:Sirius Conversation
00:09:50.089 : en:Rita Keeter
00:13:45.324 : en:Let Events Unfold
00:19:14.987 : en:The Four Champions
00:23:09.388 : en:The Unforgivable Curses
00:29:01.573 : en:The Goblet of Fire
00:36:26.684 : en:The Triwizard Tournament
00:39:05.009 : en:The Dark Mark
00:41:32.489 : en:The Quidditch World Cup
00:45:36.400 : en:The Portkey
00:49:07.778 : en:Best Foot Forward
00:54:06.243 : en:The First Task
01:02:46.596 : en:Tranforming Malfoy
01:09:12.982 : en:An Unexpected Challenge
01:14:43.979 : en:The Yule Ball
01:22:27.609 : en:The Egg's Clue
01:30:34.762 : en:The Second Task
01:39:29.296 : en:Never Whole Again
01:42:42.489 : en:The Pensieve
01:47:22.936 : en:Dreams and Suspicions
01:50:19.279 : en:The Third Task
01:58:54.460 : en:Flesh, Blood and Bone
02:02:02.315 : en:The Death Eaters
02:06:36.589 : en:Priori Incantatem
02:10:01.627 : en:Veritaserum
02:17:38.083 : en:Parting Ways
02:23:48.620 : en:End Credits
Скріншоти







Гаррі Поттер та Орден Фенікса / Harry Potter and the Order of the Phoenix (2007) 4K UHD Remux 2160p HDR H.265 2хUkr/Eng | Sub Ukr/Eng
Гаррі Поттер та Орден Фенікса / Harry Potter and the Order of the Phoenix (2007) 4K UHD Remux 2160p HDR H.265 2хUkr/Eng | Sub Ukr/Eng

Оригінальний та українські постери





Жанр: детектив, фентезі, пригодницький, сімейний
Країна: Велика Британія, США



Кінокомпанія: Warner Bros. Pictures, Heyday Films, Cool Music
Режисер: Девід Йєтс
Актори: Деніел Редкліфф, Руперт Ґрінт, Емма Вотсон, Том Фелтон, Кеті Люнг, Ральф Файнс, Алан Рікман, Майкл Ґембон, Меґґі Сміт, Кетрін Гантер, Імельда Стонтон, Ґері Олдмен / Gary Oldman та інші.

Сюжет:
Побоюючись, що директор Гоґвортсу Албус Дамблдор поширює брехливі чутки про повернення Волдеморта, Міністерство Магії призначає нового професора захисту від темних мистецтв - Долорес Амбридж. Однак її курс лекцій із захисної магії виявляється абсолютно некорисним. Гаррі Поттер бере ініціативу у свої руки, таємно організувавши групу студентів і навчаючи їх самозахисту від злих сил.


Тривалість: 02:18:14
Якість: Remux 4K 2160p HDR
Відео:
кодек: H.265 (HEVC)
розмір кадру: 3840 х 2160
бітрейт: 49,1 Мбіт/сек
бітова глибина: 10 біт
кольоровий простір: BT.2020 (HDR)

Увага! Перед завантаженням переконайтесь, що ваш пристрій відтворення (та/або ПЗ) підтримує HEVC

Аудіо #1:
мова: українська
переклад: професійний дубльований
кодек: 5.1
бітрейт: 640 кб/с

Аудіо #2:
мова: українська
переклад: багатоголосий закадровий
кодек: 2.0
бітрейт: 192 кб/с

Аудіо #3:
мова: англійська
переклад: оригінал
кодек: -HD MA 7.1
бітрейт: 3953 кб/с

Аудіо #4:
мова: англійська
переклад: оригінал
кодек: LPCM 5.1
бітрейт: 4 608 кб/с

Аудіо #5:
мова: англійська
переклад: оригінал
кодек: 5.1
бітрейт: 640 кб/с

Субтитри #1 (повні):
мова: українська
тип: програмні (м'які)
формат: *.srt

Субтитри #2 (стилізовані):
мова: українська
тип: програмні (м'які)
формат: *.

Субтитри #3 (повні - 4K UHD Blu-ray):
мова: англійська
тип: програмні (м'які)
формат: *.pgs

Субтитри #4 (SDH):
мова: англійська
тип: програмні (м'які)
формат: *.srt

Субтитри #5 (Stylized):
мова: англійська
тип: програмні (м'які)
формат: *.

Збережені оригінальні іменовані розділи як на Blu-ray
Info

General
Unique ID : 95670413696758094339799221433637131952 (0x47F973926D55EDE8BEA6B16DEEFDD6B0)
Complete name : /Volumes/MMEDIA/MOVIES/Harry Potter Complete Collection/5. Harry Potter and the Order of the Phoenix (2007) UHDBDRMX2160pHDR.
Format :
Format version : Version 4
File size : 56.7 GiB
Duration : 2 h 18 min
Overall bit rate mode : Variable
Overall bit rate : 58.7 Mb/s
Movie name : Harry Potter and the Order of the Phoenix (2007)
Encoded date : UTC 2020-12-23 18:20:32
Writing application : v51.0.0 ('I Wish') 64-bit
Writing library : libebml v1.4.0 + v1.6.2
Cover : Yes
Attachments : cover.jpg / poster.jpg / LumosCyr_0.ttf / HarryPotterCyr_0.ttf

Video
ID : 1
Format : HEVC
Format/Info : High Efficiency Video Coding
Format profile : Main [email protected]@High
HDR format : SMPTE ST 2086, HDR10 compatible
Codec ID : V_MPEGH/ISO/HEVC
Duration : 2 h 18 min
Bit rate : 49.1 Mb/s
Width : 3 840 pixels
Height : 2 160 pixels
Display aspect ratio : 16:9
Frame rate mode : Constant
Frame rate : 23.976 (24000/1001) FPS
Color space : YUV
Chroma subsampling : 4:2:0 (Type 2)
Bit depth : 10 bits
Bits/(Pixel*Frame) : 0.247
Stream size : 47.4 GiB (84%)
Default : Yes
Forced : No
Color range : Limited
Color primaries : BT.2020
Transfer characteristics : PQ
Matrix coefficients : BT.2020 non-constant
Mastering display color primaries : Display P3
Mastering display luminance : min: 0.0050 cd/m2, max: 4000 cd/m2
Maximum Content Light Level : 500 cd/m2
Maximum Frame-Average Light Level : 200 cd/m2

Audio #1
ID : 2
Format : AC-3
Format/Info : Audio Coding 3
Commercial name : Dolby Digital
Codec ID : A_AC3
Duration : 2 h 18 min
Bit rate mode : Constant
Bit rate : 640 kb/s
Channel(s) : 6 channels
Channel layout : L R C LFE Ls Rs
Sampling rate : 48.0 kHz
Frame rate : 31.250 FPS (1536 SPF)
Compression mode : Lossy
Stream size : 633 MiB (1%)
Title : DUB [Blu-ray] [email protected]
Language : Ukrainian
Service kind : Complete Main
Default : Yes
Forced : Yes

Audio #2
ID : 3
Format : AC-3
Format/Info : Audio Coding 3
Commercial name : Dolby Digital
Codec ID : A_AC3
Duration : 2 h 18 min
Bit rate mode : Constant
Bit rate : 192 kb/s
Channel(s) : 2 channels
Channel layout : L R
Sampling rate : 48.0 kHz
Frame rate : 31.250 FPS (1536 SPF)
Compression mode : Lossy
Stream size : 190 MiB (0%)
Title : MVO [Новий] [email protected]
Language : Ukrainian
Service kind : Complete Main
Default : No
Forced : No

Audio #3
ID : 4
Format : XLL X
Format/Info : Digital Theater Systems
Commercial name : -HD Master Audio
Codec ID : A_DTS
Duration : 2 h 18 min
Bit rate mode : Variable
Bit rate : 3 953 kb/s
Channel(s) : 8 channels
Channel(s)_Original : Object Based
ChannelLayout_Original : Object Based
Sampling rate : 48.0 kHz
Frame rate : 93.750 FPS (512 SPF)
Bit depth : 24 bits
Stream size : 3.82 GiB (7%)
Title : Original -HD MA [email protected]
Language : English
Default : No
Forced : No

Audio #4
ID : 5
Format : PCM
Format settings : Little / Signed
Codec ID : A_PCM/INT/LIT
Duration : 2 h 4 min
Bit rate mode : Constant
Bit rate : 4 608 kb/s
Channel(s) : 6 channels
Sampling rate : 48.0 kHz
Frame rate : 32.000 FPS (1500 SPF)
Bit depth : 16 bits
Stream size : 4.00 GiB (7%)
Title : Original LPCM [email protected]
Language : English
Default : No
Forced : No

Audio #5
ID : 6
Format : AC-3
Format/Info : Audio Coding 3
Commercial name : Dolby Digital
Codec ID : A_AC3
Duration : 2 h 18 min
Bit rate mode : Constant
Bit rate : 640 kb/s
Channel(s) : 6 channels
Channel layout : L R C LFE Ls Rs
Sampling rate : 48.0 kHz
Frame rate : 31.250 FPS (1536 SPF)
Compression mode : Lossy
Stream size : 633 MiB (1%)
Title : Original Dolby Digital [email protected]
Language : English
Service kind : Complete Main
Default : No
Forced : No

Text #1
ID : 7
Format : UTF-8
Codec ID : S_TEXT/UTF8
Codec ID/Info : UTF-8 Plain Text
Duration : 2 h 10 min
Bit rate : 80 b/s
Count of elements : 1335
Stream size : 77.2 KiB (0%)
Title : UkrFull
Language : Ukrainian
Default : No
Forced : No

Text #2
ID : 8
Format :
Codec ID : S_TEXT/
Codec ID/Info : Advanced Sub Station Alpha
Duration : 2 h 10 min
Bit rate : 108 b/s
Count of elements : 1335
Compression mode : Lossless
Stream size : 104 KiB (0%)
Title : UkrFullStyle
Language : Ukrainian
Default : No
Forced : No

Text #3
ID : 9
Format : PGS
Muxing mode : zlib
Codec ID : S_HDMV/PGS
Codec ID/Info : Picture based subtitle format used on BDs/HD-DVDs
Duration : 2 h 17 min
Bit rate : 31.7 kb/s
Count of elements : 3046
Stream size : 31.2 MiB (0%)
Title : EngFull [Blu-ray4kUHD]
Language : English
Default : No
Forced : No

Text #4
ID : 10
Format : UTF-8
Codec ID : S_TEXT/UTF8
Codec ID/Info : UTF-8 Plain Text
Duration : 2 h 17 min
Bit rate : 52 b/s
Count of elements : 1523
Stream size : 52.8 KiB (0%)
Title : EngFullSDH
Language : English
Default : No
Forced : No

Text #5
ID : 11
Format :
Codec ID : S_TEXT/
Codec ID/Info : Advanced Sub Station Alpha
Duration : 2 h 17 min
Bit rate : 71 b/s
Count of elements : 1298
Compression mode : Lossless
Stream size : 72.3 KiB (0%)
Title : EngFullStyle
Language : English
Default : No
Forced : No

Menu
00:00:00.000 : en:Dudley Demented
00:04:50.957 : en:The Advance Guard
00:10:16.782 : en:Number Twelve, Grimmauld Place
00:15:19.919 : en:The Order of the Phoenix
00:17:43.228 : en:The Ministry of Magic
00:20:52.417 : en:The Hearing
00:25:33.532 : en:The Originals
00:28:07.352 : en:Luna Lovegood
00:30:20.985 : en:Preserve, Perfect and Prune
00:34:53.925 : en:Professor Umbridge's Class
00:37:41.092 : en:Detention With Dolores
00:41:48.506 : en:Thestrals and Sympathy
00:44:57.528 : en:The Hogwarts High Inquisitor
00:50:57.387 : en:In the Hog's Head
00:56:37.394 : en:Dumbledore's Army
01:03:28.638 : en:Under the Mistletoe
01:07:39.055 : en:Occlumency
01:11:16.105 : en:House of Black
01:16:30.252 : en:Hagrid's Tale
01:19:16.585 : en:Unquiet Escape
01:25:30.959 : en:Grawp
01:31:30.651 : en:Snape's Worst Memory
01:34:49.850 : en:O.W.L.S.
01:37:42.356 : en:Out of the Fire
01:41:40.260 : en:Fight and Flight
01:45:59.353 : en:The Department of Mysteries
01:48:37.177 : en:Beyond the Veil
01:52:40.920 : en:Side by Side
01:57:30.710 : en:Wizards Duel
02:03:33.239 : en:The Lost Prophecy
02:05:50.709 : en:A Way of Coming Back
02:08:26.865 : en:End Credits
Скріншоти







Гаррі Поттер та напівкровний Принц / Harry Potter and the Half-Blood Prince (2009) 4K UHD Remux 2160p HDR H.265 2хUkr/Eng | Sub Ukr/Eng
Гаррі Поттер та напівкровний Принц / Harry Potter and the Half-Blood Prince (2009) 4K UHD Remux 2160p HDR H.265 2хUkr/Eng | Sub Ukr/Eng

Оригінальний та українські постери





Жанр: детектив, фентезі, пригодницький, сімейний
Країна: Велика Британія, США



Кінокомпанія: Warner Bros. Pictures, Heyday Films
Режисер: Девід Йєтс
Актори: Деніел Редкліфф, Руперт Ґрінт, Емма Вотсон, Майкл Ґембон, Алан Рікман, Меґґі Сміт, Девід Тюліс та інші.

Сюжет:
Розпочинається шостий рік навчання Гаррі Поттера у Гоґвортській школі магії та чаклунства, де йому трапляється підручник з підписом "Власником цієї книги є напівкровний принц". Поки Гаррі набирається досвіду за допомогою підручника "принца" та знаходить справжнє кохання, темні сили на чолі з Лордом Волдемортом отримують могутню підмогу...


Тривалість: 02:33:31
Якість: Remux 4K 2160p HDR
Відео:
кодек: H.265 (HEVC)
розмір кадру: 3840 х 2160
бітрейт: 49,9 Мбіт/сек
бітова глибина: 10 біт
кольоровий простір: BT.2020 (HDR)

Увага! Перед завантаженням переконайтесь, що ваш пристрій відтворення (та/або ПЗ) підтримує HEVC

Аудіо #1:
мова: українська
переклад: професійний дубльований
кодек: 5.1
бітрейт: 448 кб/с

Аудіо #2:
мова: українська
переклад: багатоголосий закадровий
кодек: 2.0
бітрейт: 192 кб/с

Аудіо #3:
мова: англійська
переклад: оригінал
кодек: -HD MA 7.1
бітрейт: 3689 кб/с

Аудіо #4:
мова: англійська
переклад: оригінал
кодек: TrueHD 5.1
бітрейт: 1 522 кб/с

Аудіо #5:
мова: англійська
переклад: оригінал
кодек: 5.1
бітрейт: 640 кб/с

Субтитри #1 (повні):
мова: українська
тип: програмні (м'які)
формат: *.srt

Субтитри #2 (стилізовані):
мова: українська
тип: програмні (м'які)
формат: *.

Субтитри #3 (повні - 4K UHD Blu-ray):
мова: англійська
тип: програмні (м'які)
формат: *.pgs

Субтитри #4 (Full):
мова: англійська
тип: програмні (м'які)
формат: *.srt

Субтитри #5 (Stylized):
мова: англійська
тип: програмні (м'які)
формат: *.

Збережені оригінальні іменовані розділи як на Blu-ray
Info

General
Unique ID : 248697515189569444304808019283302307658 (0xBB19662F56ABF520905ABEE19626574A)
Complete name : /Volumes/MMEDIA/MOVIES/Harry Potter Complete Collection/6. Harry Potter and the Half-Blood Prince (2009) UHDBDRMX2160pHDR.
Format :
Format version : Version 4
File size : 60.6 GiB
Duration : 2 h 33 min
Overall bit rate mode : Variable
Overall bit rate : 56.5 Mb/s
Movie name : Harry Potter and the Half-Blood Prince (2009)
Encoded date : UTC 2020-12-25 09:14:03
Writing application : v51.0.0 ('I Wish') 64-bit
Writing library : libebml v1.4.0 + v1.6.2
Cover : Yes
Attachments : cover.jpg / poster.jpg / LumosCyr_0.ttf / HarryPotterCyr_0.ttf

Video
ID : 1
Format : HEVC
Format/Info : High Efficiency Video Coding
Format profile : Main [email protected]@High
HDR format : SMPTE ST 2086, HDR10 compatible
Codec ID : V_MPEGH/ISO/HEVC
Duration : 2 h 33 min
Bit rate : 49.9 Mb/s
Width : 3 840 pixels
Height : 2 160 pixels
Display aspect ratio : 16:9
Frame rate mode : Constant
Frame rate : 23.976 (24000/1001) FPS
Color space : YUV
Chroma subsampling : 4:2:0 (Type 2)
Bit depth : 10 bits
Bits/(Pixel*Frame) : 0.251
Stream size : 53.6 GiB (88%)
Default : Yes
Forced : No
Color range : Limited
Color primaries : BT.2020
Transfer characteristics : PQ
Matrix coefficients : BT.2020 non-constant
Mastering display color primaries : Display P3
Mastering display luminance : min: 0.0050 cd/m2, max: 4000 cd/m2
Maximum Content Light Level : 500 cd/m2
Maximum Frame-Average Light Level : 200 cd/m2

Audio #1
ID : 2
Format : AC-3
Format/Info : Audio Coding 3
Commercial name : Dolby Digital
Codec ID : A_AC3
Duration : 2 h 33 min
Bit rate mode : Constant
Bit rate : 448 kb/s
Channel(s) : 6 channels
Channel layout : L R C LFE Ls Rs
Sampling rate : 48.0 kHz
Frame rate : 31.250 FPS (1536 SPF)
Compression mode : Lossy
Stream size : 492 MiB (1%)
Title : DUB [Blu-ray] [email protected]
Language : Ukrainian
Service kind : Complete Main
Default : Yes
Forced : Yes

Audio #2
ID : 3
Format : AC-3
Format/Info : Audio Coding 3
Commercial name : Dolby Digital
Codec ID : A_AC3
Duration : 2 h 33 min
Bit rate mode : Constant
Bit rate : 192 kb/s
Channel(s) : 2 channels
Channel layout : L R
Sampling rate : 48.0 kHz
Frame rate : 31.250 FPS (1536 SPF)
Compression mode : Lossy
Stream size : 211 MiB (0%)
Title : MVO [Новий] [email protected]
Language : Ukrainian
Service kind : Complete Main
Default : No
Forced : No

Audio #3
ID : 4
Format : XLL X
Format/Info : Digital Theater Systems
Commercial name : -HD Master Audio
Codec ID : A_DTS
Duration : 2 h 33 min
Bit rate mode : Variable
Bit rate : 3 689 kb/s
Channel(s) : 8 channels
Channel(s)_Original : Object Based
ChannelLayout_Original : Object Based
Sampling rate : 48.0 kHz
Frame rate : 93.750 FPS (512 SPF)
Bit depth : 24 bits
Stream size : 3.96 GiB (7%)
Title : Original -HD MA [email protected]
Language : English
Default : No
Forced : No

Audio #4
ID : 5
Format : MLP FBA
Format/Info : Meridian Lossless Packing FBA
Commercial name : Dolby TrueHD
Codec ID : A_TRUEHD
Duration : 2 h 33 min
Bit rate mode : Variable
Bit rate : 1 522 kb/s
Maximum bit rate : 3 369 kb/s
Channel(s) : 6 channels
Channel layout : L R C LFE Ls Rs
Sampling rate : 48.0 kHz
Frame rate : 1 200.000 FPS (40 SPF)
Compression mode : Lossless
Stream size : 1.63 GiB (3%)
Title : Original Dolby TrueHD [email protected]
Language : English
Default : No
Forced : No

Audio #5
ID : 6
Format : AC-3
Format/Info : Audio Coding 3
Commercial name : Dolby Digital
Codec ID : A_AC3
Duration : 2 h 33 min
Bit rate mode : Constant
Bit rate : 640 kb/s
Channel(s) : 6 channels
Channel layout : L R C LFE Ls Rs
Sampling rate : 48.0 kHz
Frame rate : 31.250 FPS (1536 SPF)
Compression mode : Lossy
Stream size : 703 MiB (1%)
Title : Original Dolby Digital [email protected]
Language : English
Service kind : Complete Main
Default : No
Forced : No

Text #1
ID : 7
Format : UTF-8
Codec ID : S_TEXT/UTF8
Codec ID/Info : UTF-8 Plain Text
Duration : 2 h 26 min
Bit rate : 63 b/s
Count of elements : 1439
Stream size : 67.9 KiB (0%)
Title : UkrFull
Language : Ukrainian
Default : No
Forced : No

Text #2
ID : 8
Format :
Codec ID : S_TEXT/
Codec ID/Info : Advanced Sub Station Alpha
Duration : 2 h 26 min
Bit rate : 90 b/s
Count of elements : 1439
Compression mode : Lossless
Stream size : 96.4 KiB (0%)
Title : UkrFullStyle
Language : Ukrainian
Default : No
Forced : No

Text #3
ID : 9
Format : PGS
Muxing mode : zlib
Codec ID : S_HDMV/PGS
Codec ID/Info : Picture based subtitle format used on BDs/HD-DVDs
Duration : 2 h 33 min
Bit rate : 28.1 kb/s
Count of elements : 3042
Stream size : 30.8 MiB (0%)
Title : EngFull [Blu-ray4kUHD]
Language : English
Default : No
Forced : No

Text #4
ID : 10
Format : UTF-8
Codec ID : S_TEXT/UTF8
Codec ID/Info : UTF-8 Plain Text
Duration : 2 h 22 min
Bit rate : 48 b/s
Count of elements : 1437
Stream size : 50.5 KiB (0%)
Title : EngFull
Language : English
Default : No
Forced : No

Text #5
ID : 11
Format :
Codec ID : S_TEXT/
Codec ID/Info : Advanced Sub Station Alpha
Duration : 2 h 22 min
Bit rate : 75 b/s
Count of elements : 1437
Compression mode : Lossless
Stream size : 78.9 KiB (0%)
Title : EngFullStyle
Language : English
Default : No
Forced : No

Menu
00:00:00.000 : en:Who's Harry Potter?
00:05:28.494 : en:Horace Slughorn
00:12:13.941 : en:What Could Be Safer?
00:14:57.146 : en:Snape's Visitors
00:18:43.205 : en:Draco's Detour
00:22:30.515 : en:That's For My Father
00:27:36.029 : en:Dark Forces
00:32:04.631 : en:The Half-Blooded Prince
00:37:48.224 : en:The Secret Riddle
00:44:48.352 : en:Hermione's Helping Hand
00:49:31.760 : en:Cursed Necklace
00:54:55.375 : en:Slug Club
01:00:00.305 : en:Felix Felicis
01:03:09.660 : en:How It Feels
01:05:57.161 : en:Free Agents
01:09:13.691 : en:The Unbreakable Vow
01:14:00.102 : en:Death Eaters Attack
01:21:09.781 : en:A Sluggish Memory
01:26:31.477 : en:Perilous Potions
01:33:37.403 : en:Sectumsempra
01:39:57.324 : en:Hiding the Book
01:43:16.273 : en:Liquid Luck
01:48:24.748 : en:After Aragog's Burial
01:52:30.118 : en:Horcruxes
01:56:53.673 : en:The Cave
02:02:11.741 : en:Inferi Attack
02:08:33.539 : en:The Astronomy Tower
02:15:00.300 : en:Flight of the Princess
02:19:08.048 : en:R.A.B.
02:23:54.125 : en:End Credits
Скріншоти







Гаррі Поттер та Смертельні реліквії. Частина перша / Harry Potter and the Deathly Hallows: Part 1 (2010) 4K UHD Remux 2160p HDR H.265 Ukr/Eng | Sub Ukr/Eng
Гаррі Поттер та Смертельні реліквії. Частина перша / Harry Potter and the Deathly Hallows: Part 1 (2010) 4K UHD Remux 2160p HDR H.265 Ukr/Eng | Sub Ukr/Eng

Оригінальний та українські постери





Жанр: детектив, фентезі, пригодницький, сімейний
Країна: Велика Британія, США



Кінокомпанія: Warner Bros. Pictures, Heyday Films
Режисер: Девід Йєтс
Актори: Деніел Редкліфф, Руперт Ґрінт, Емма Вотсон, Гелена Бонем Картер, Ральф Фаянс, Том Фелтон, Робі Колтрейн, Алан Рікман та інші.

Сюжет:
Кінець саги розпочинається. Гаррі, Рон і Герміона повертаються у Гоґвортс, щоб знайти і знищити останній горокракс Волдеморта, але коли Волдеморт дізнається про їхні плани розпочнеться небачена битва, і світ, який вони знають, вже ніколи не буде колишнім.


Тривалість: 02:26:05
Якість: Remux 4K 2160p HDR
Відео:
кодек: H.265 (HEVC)
розмір кадру: 3840 х 2160
бітрейт: 47,2 Мбіт/сек
бітова глибина: 10 біт
кольоровий простір: BT.2020 (HDR)

Увага! Перед завантаженням переконайтесь, що ваш пристрій відтворення (та/або ПЗ) підтримує HEVC

Аудіо #1:
мова: українська
переклад: професійний дубльований
кодек: 5.1
бітрейт: 640 кб/с

Аудіо #2:
мова: англійська
переклад: оригінал
кодек: -HD MA 7.1
бітрейт: 3683 кб/с

Аудіо #3:
мова: англійська
переклад: оригінал
кодек: 5.1
бітрейт: 640 кб/с

Субтитри #1 (повні):
мова: українська
тип: програмні (м'які)
формат: *.srt

Субтитри #2 (стилізовані):
мова: українська
тип: програмні (м'які)
формат: *.

Субтитри #3 (повні - 4K UHD Blu-ray):
мова: англійська
тип: програмні (м'які)
формат: *.pgs

Субтитри #4 (Full):
мова: англійська
тип: програмні (м'які)
формат: *.srt

Субтитри #5 (Stylized):
мова: англійська
тип: програмні (м'які)
формат: *.

Збережені оригінальні іменовані розділи як на Blu-ray
Info

General
Unique ID : 51507580741254039023762562784198328049 (0x26BFFFCC4F030C19691C95E1196EFEF1)
Complete name : /Volumes/MMEDIA/MOVIES/Harry Potter Complete Collection/7. Harry Potter and the Deathly Hallows Part 1 (2010) UHDBDRMX2160pHDR.
Format :
Format version : Version 4
File size : 53.2 GiB
Duration : 2 h 26 min
Overall bit rate mode : Variable
Overall bit rate : 52.2 Mb/s
Movie name : Harry Potter and the Deathly Hallows Part 1 (2010)
Encoded date : UTC 2020-12-24 14:34:31
Writing application : v51.0.0 ('I Wish') 64-bit
Writing library : libebml v1.4.0 + v1.6.2
Cover : Yes
Attachments : cover.jpg / poster.jpg / LumosCyr_0.ttf / HarryPotterCyr_0.ttf

Video
ID : 1
Format : HEVC
Format/Info : High Efficiency Video Coding
Format profile : Main [email protected]@High
HDR format : SMPTE ST 2086, HDR10 compatible
Codec ID : V_MPEGH/ISO/HEVC
Duration : 2 h 26 min
Bit rate : 47.2 Mb/s
Width : 3 840 pixels
Height : 2 160 pixels
Display aspect ratio : 16:9
Frame rate mode : Constant
Frame rate : 23.976 (24000/1001) FPS
Color space : YUV
Chroma subsampling : 4:2:0 (Type 2)
Bit depth : 10 bits
Bits/(Pixel*Frame) : 0.237
Stream size : 48.1 GiB (90%)
Default : Yes
Forced : No
Color range : Limited
Color primaries : BT.2020
Transfer characteristics : PQ
Matrix coefficients : BT.2020 non-constant
Mastering display color primaries : Display P3
Mastering display luminance : min: 0.0050 cd/m2, max: 4000 cd/m2
Maximum Content Light Level : 2632 cd/m2
Maximum Frame-Average Light Level : 431 cd/m2

Audio #1
ID : 2
Format : AC-3
Format/Info : Audio Coding 3
Commercial name : Dolby Digital
Codec ID : A_AC3
Duration : 2 h 26 min
Bit rate mode : Constant
Bit rate : 640 kb/s
Channel(s) : 6 channels
Channel layout : L R C LFE Ls Rs
Sampling rate : 48.0 kHz
Frame rate : 31.250 FPS (1536 SPF)
Compression mode : Lossy
Stream size : 668 MiB (1%)
Title : DUB [Blu-ray] [email protected]
Language : Ukrainian
Service kind : Complete Main
Default : Yes
Forced : Yes

Audio #2
ID : 3
Format : XLL X
Format/Info : Digital Theater Systems
Commercial name : -HD Master Audio
Codec ID : A_DTS
Duration : 2 h 26 min
Bit rate mode : Variable
Bit rate : 3 683 kb/s
Channel(s) : 8 channels
Channel(s)_Original : Object Based
ChannelLayout_Original : Object Based
Sampling rate : 48.0 kHz
Frame rate : 93.750 FPS (512 SPF)
Bit depth : 24 bits
Stream size : 3.76 GiB (7%)
Title : Original -HD MA [email protected]
Language : English
Default : No
Forced : No

Audio #3
ID : 4
Format : AC-3
Format/Info : Audio Coding 3
Commercial name : Dolby Digital
Codec ID : A_AC3
Duration : 2 h 26 min
Bit rate mode : Constant
Bit rate : 640 kb/s
Channel(s) : 6 channels
Channel layout : L R C LFE Ls Rs
Sampling rate : 48.0 kHz
Frame rate : 31.250 FPS (1536 SPF)
Compression mode : Lossy
Stream size : 669 MiB (1%)
Title : Original Dolby Digital [email protected]
Language : English
Service kind : Complete Main
Default : No
Forced : No

Text #1
ID : 5
Format : UTF-8
Codec ID : S_TEXT/UTF8
Codec ID/Info : UTF-8 Plain Text
Duration : 2 h 11 min
Bit rate : 70 b/s
Count of elements : 1251
Stream size : 67.6 KiB (0%)
Title : UkrFull
Language : Ukrainian
Default : No
Forced : No

Text #2
ID : 6
Format :
Codec ID : S_TEXT/
Codec ID/Info : Advanced Sub Station Alpha
Duration : 2 h 11 min
Bit rate : 96 b/s
Count of elements : 1251
Compression mode : Lossless
Stream size : 92.6 KiB (0%)
Title : UkrFullStyle
Language : Ukrainian
Default : No
Forced : No

Text #3
ID : 7
Format : PGS
Muxing mode : zlib
Codec ID : S_HDMV/PGS
Codec ID/Info : Picture based subtitle format used on BDs/HD-DVDs
Duration : 2 h 25 min
Bit rate : 27.0 kb/s
Count of elements : 2892
Stream size : 28.1 MiB (0%)
Title : EngFull [Blu-ray4kUHD]
Language : English
Default : No
Forced : No

Text #4
ID : 8
Format : UTF-8
Codec ID : S_TEXT/UTF8
Codec ID/Info : UTF-8 Plain Text
Duration : 2 h 11 min
Bit rate : 44 b/s
Count of elements : 1272
Stream size : 43.0 KiB (0%)
Title : EngFull
Language : English
Default : No
Forced : No

Text #5
ID : 9
Format :
Codec ID : S_TEXT/
Codec ID/Info : Advanced Sub Station Alpha
Duration : 2 h 11 min
Bit rate : 71 b/s
Count of elements : 1274
Compression mode : Lossless
Stream size : 68.8 KiB (0%)
Title : EngFullStyle
Language : English
Default : No
Forced : No

Menu
00:00:00.000 : en:Dark Times
00:04:18.508 : en:Dark Lord Ascending
00:09:46.627 : en:The Seven Potters
00:15:16.206 : en:Aerial Ambush
00:19:13.569 : en:Fallen Warrior
00:26:04.229 : en:Dumbledore's Will
00:31:37.770 : en:The Wedding
00:35:43.307 : en:A Place to Hide
00:41:37.536 : en:Kreacher's Tale
00:45:45.617 : en:Theft of a Thief
00:50:14.094 : en:Ministry Interior
00:55:02.715 : en:Secret Files
00:58:31.174 : en:Lifting the Locket
01:03:41.358 : en:Forest Fugitives
01:10:02.197 : en:Getting Too Close
01:14:30.924 : en:Broken Ranks
01:18:48.848 : en:Invitation to Dance
01:22:17.598 : en:Clues Revealed
01:24:55.089 : en:Godric's Hollow
01:28:03.194 : en:Bathilda's Secret
01:32:34.173 : en:The Silver Doe
01:37:40.228 : en:Sword of Gryffindor
01:42:37.567 : en:Lighting the Way Back
01:47:54.133 : en:The Three Brothers
01:53:48.112 : en:The Deathly Hallows
01:57:30.960 : en:Snatchers Strike
02:01:27.988 : en:Malfoy Manor
02:05:42.159 : en:Dobby Has No Master
02:09:42.732 : en:Sleeping Friend
02:13:16.029 : en:Grave Robber
02:14:47.120 : en:End Credits
Скріншоти







Гаррі Поттер та Смертельні реліквії. Частина друга / Harry Potter and the Deathly Hallows: Part 2 (2011) 4K UHD Remux 2160p HDR H.265 Ukr/Eng | Sub Ukr/Eng
Гаррі Поттер та Смертельні реліквії. Частина друга / Harry Potter and the Deathly Hallows: Part 2 (2011) 4K UHD Remux 2160p HDR H.265 Ukr/Eng | Sub Ukr/Eng

Оригінальний та українські постери





Жанр: пригодницький, драма, фентезі, містерія
Країна: США



Кінокомпанія: Heyday Films, Moving Picture Company (MPC), Warner Bros. Pictures, Warner Bros.
Режисер: Девід Йєтс
Актори: Деніел Редкліфф, Руперт Ґрінт, Емма Вотсон, Ральф Файнс, Алан Рікман, Гелена Бонем Картер, Том Фелтон, Ґері Олдмен / Gary Oldman та інші.

Сюжет:
Остання стрічка в мегапопулярному кіносеріалі про хлопчика зі шрамом, за яким полює найсильніший темний маг свого часу. Розірвана на два кінофільми сьома книжка пригод про Гаррі Поттера завершує цикл - боротьба за владу над світом, який майже впав до ніг Темного Лорда і Смертежерів доходить свого піку біля стін Гоґвортсу, школи для маленьких чародіїв.


Тривалість: 02:10:26
Якість: Remux 4K 2160p HDR
Відео:
кодек: H.265 (HEVC)
розмір кадру: 3840 х 2160
бітрейт: 46,7 Мбіт/сек
бітова глибина: 10 біт
кольоровий простір: BT.2020 (HDR)

Увага! Перед завантаженням переконайтесь, що ваш пристрій відтворення (та/або ПЗ) підтримує HEVC

Аудіо #1:
мова: українська
переклад: професійний дубльований
кодек: 5.1
бітрейт: 640 кб/с

Аудіо #2:
мова: англійська
переклад: оригінал
кодек: -HD MA 7.1
бітрейт: 3787 кб/с

Аудіо #3:
мова: англійська
переклад: оригінал
кодек: 5.1
бітрейт: 640 кб/с

Субтитри #1 (повні):
мова: українська
тип: програмні (м'які)
формат: *.srt

Субтитри #2 (стилізовані):
мова: українська
тип: програмні (м'які)
формат: *.

Субтитри #3 (повні - 4K UHD Blu-ray):
мова: англійська
тип: програмні (м'які)
формат: *.pgs

Субтитри #4 (Full):
мова: англійська
тип: програмні (м'які)
формат: *.srt

Субтитри #5 (Stylized):
мова: англійська
тип: програмні (м'які)
формат: *.

Збережені оригінальні іменовані розділи як на Blu-ray
Info

General
Unique ID : 217437878473970828928483415535777010166 (0xA395031A46E9FB0F759D6A0F62E4D1F6)
Complete name : /Volumes/MMEDIA/MOVIES/Harry Potter Complete Collection/8. Harry Potter and the Deathly Hallows Part 2 (2011) UHDBDRMX2160pHDR.
Format :
Format version : Version 4
File size : 47.2 GiB
Duration : 2 h 10 min
Overall bit rate mode : Variable
Overall bit rate : 51.8 Mb/s
Movie name : Harry Potter and the Deathly Hallows Part 2 (2011)
Encoded date : UTC 2020-12-24 20:20:21
Writing application : v51.0.0 ('I Wish') 64-bit
Writing library : libebml v1.4.0 + v1.6.2
Cover : Yes
Attachments : cover.jpg / poster.jpg / LumosCyr_0.ttf / HarryPotterCyr_0.ttf

Video
ID : 1
Format : HEVC
Format/Info : High Efficiency Video Coding
Format profile : Main [email protected]@High
HDR format : SMPTE ST 2086, HDR10 compatible
Codec ID : V_MPEGH/ISO/HEVC
Duration : 2 h 10 min
Bit rate : 46.7 Mb/s
Width : 3 840 pixels
Height : 2 160 pixels
Display aspect ratio : 16:9
Frame rate mode : Constant
Frame rate : 23.976 (24000/1001) FPS
Color space : YUV
Chroma subsampling : 4:2:0 (Type 2)
Bit depth : 10 bits
Bits/(Pixel*Frame) : 0.235
Stream size : 42.5 GiB (90%)
Default : Yes
Forced : No
Color range : Limited
Color primaries : BT.2020
Transfer characteristics : PQ
Matrix coefficients : BT.2020 non-constant
Mastering display color primaries : Display P3
Mastering display luminance : min: 0.0050 cd/m2, max: 4000 cd/m2
Maximum Content Light Level : 500 cd/m2
Maximum Frame-Average Light Level : 200 cd/m2

Audio #1
ID : 2
Format : AC-3
Format/Info : Audio Coding 3
Commercial name : Dolby Digital
Codec ID : A_AC3
Duration : 2 h 10 min
Bit rate mode : Constant
Bit rate : 640 kb/s
Channel(s) : 6 channels
Channel layout : L R C LFE Ls Rs
Sampling rate : 48.0 kHz
Frame rate : 31.250 FPS (1536 SPF)
Compression mode : Lossy
Stream size : 597 MiB (1%)
Title : DUB [Blu-ray] [email protected]
Language : Ukrainian
Service kind : Complete Main
Default : Yes
Forced : Yes

Audio #2
ID : 3
Format : XLL X
Format/Info : Digital Theater Systems
Commercial name : -HD Master Audio
Codec ID : A_DTS
Duration : 2 h 10 min
Bit rate mode : Variable
Bit rate : 3 787 kb/s
Channel(s) : 8 channels
Channel(s)_Original : Object Based
ChannelLayout_Original : Object Based
Sampling rate : 48.0 kHz
Frame rate : 93.750 FPS (512 SPF)
Bit depth : 24 bits
Stream size : 3.45 GiB (7%)
Title : Original -HD MA [email protected]
Language : English
Default : No
Forced : No

Audio #3
ID : 4
Format : AC-3
Format/Info : Audio Coding 3
Commercial name : Dolby Digital
Codec ID : A_AC3
Duration : 2 h 10 min
Bit rate mode : Constant
Bit rate : 640 kb/s
Channel(s) : 6 channels
Channel layout : L R C LFE Ls Rs
Sampling rate : 48.0 kHz
Frame rate : 31.250 FPS (1536 SPF)
Compression mode : Lossy
Stream size : 597 MiB (1%)
Title : Original Dolby Digital [email protected]
Language : English
Service kind : Complete Main
Default : No
Forced : No

Text #1
ID : 5
Format : UTF-8
Codec ID : S_TEXT/UTF8
Codec ID/Info : UTF-8 Plain Text
Duration : 1 h 55 min
Bit rate : 53 b/s
Count of elements : 965
Stream size : 44.9 KiB (0%)
Title : UkrFull
Language : Ukrainian
Default : No
Forced : No

Text #2
ID : 6
Format :
Codec ID : S_TEXT/
Codec ID/Info : Advanced Sub Station Alpha
Duration : 1 h 55 min
Bit rate : 75 b/s
Count of elements : 965
Compression mode : Lossless
Stream size : 63.9 KiB (0%)
Title : UkrFullStyle
Language : Ukrainian
Default : No
Forced : No

Text #3
ID : 7
Format : PGS
Muxing mode : zlib
Codec ID : S_HDMV/PGS
Codec ID/Info : Picture based subtitle format used on BDs/HD-DVDs
Duration : 2 h 9 min
Bit rate : 19.8 kb/s
Count of elements : 2058
Stream size : 18.3 MiB (0%)
Title : EngFull [Blu-ray4kUHD]
Language : English
Default : No
Forced : No

Text #4
ID : 8
Format : UTF-8
Codec ID : S_TEXT/UTF8
Codec ID/Info : UTF-8 Plain Text
Duration : 1 h 54 min
Bit rate : 33 b/s
Count of elements : 956
Stream size : 27.9 KiB (0%)
Title : EngFull
Language : English
Default : No
Forced : No

Text #5
ID : 9
Format :
Codec ID : S_TEXT/
Codec ID/Info : Advanced Sub Station Alpha
Duration : 1 h 54 min
Bit rate : 55 b/s
Count of elements : 956
Compression mode : Lossless
Stream size : 46.6 KiB (0%)
Title : EngFullStyle
Language : English
Default : No
Forced : No

Menu
00:00:00.000 : en:Shell Cottage
00:02:58.219 : en:Griphook's Price
00:06:21.172 : en:He's After You
00:10:21.871 : en:Gringotts
00:14:27.992 : en:Copping the Cup
00:20:05.621 : en:Exit the Dragon
00:22:47.783 : en:Final Hiding Place
00:25:38.620 : en:Aberforth Dumbledore
00:30:46.803 : en:Hogwarts Reunion
00:34:33.654 : en:Give Me Harry Potter
00:40:32.263 : en:Duty To Our School
00:45:52.249 : en:You Need Only Ask
00:50:15.470 : en:Blow For Blow
00:54:41.027 : en:Finding the Diadem
00:59:01.245 : en:Fiendfyre
01:03:42.067 : en:He Will Come To Me
01:07:06.063 : en:Your Mother's Eyes
01:11:24.488 : en:Confront Your Fate
01:14:38.932 : en:Visions of a Life
01:23:40.848 : en:I Open At the Close
01:29:17.727 : en:The Boy Who Lived
01:31:25.020 : en:King's Cross
01:36:37.666 : en:Declare Yourself
01:41:09.104 : en:Not Over
01:46:42.312 : en:The Wand's Choice
01:50:18.361 : en:The Wizard's Choice
01:54:16.682 : en:Nineteen Years Later
01:58:12.876 : en:End Credits
Скріншоти







Джерело: &


Золотий реліз (завантажене не впливає на рейтинг)
 Трекер:    Зареєстрований   

Завантажити / скачати фільм українською



відео для новачків



 Зареєстрований:   2020-12-26 00:00
 Розмір:   487.26 GB 
 Оцінка фільму:   10/10 (Голосів: 24)
   
sandman 
VIP


З нами з: 12.08.12
Востаннє: 17.01.21
Повідомлень: 419

2020-12-25 19:24  
Наразі триває створення торент-файла (тривалий процес). Сідування почнеться одразу після його завершення.
RoMeL 
Відео Гуртом - підтримка та поширення
Відео Гуртом - підтримка та поширення


З нами з: 09.07.08
Востаннє: 18.01.21
Повідомлень: 319

2020-12-26 00:15  
Це прекрасно! 4K релізи набирають обертів Happy
sandman 
VIP


З нами з: 12.08.12
Востаннє: 17.01.21
Повідомлень: 419

2020-12-26 00:20  
RoMeL, в першу чергу вашими стараннями, я так - для домашньої колекції більше Happy. За масове розповсюдження 4К вам більша дяка Happy
marinich 
Частий відвідувач


З нами з: 05.03.11
Востаннє: 17.01.21
Повідомлень: 49

2020-12-26 14:12  
Не запускається торрент файл, пише: інвалід торрент файл.
igor911 
Модератор відео


З нами з: 18.01.08
Востаннє: 18.01.21
Повідомлень: 15325

2020-12-26 14:20  
marinich, оновіть торент-клієнт.
sanyokfuriv 
Свій


З нами з: 05.07.11
Востаннє: 17.01.21
Повідомлень: 91

2020-12-26 14:24  
Дякую за великий труд усім причетним!
П.С. Чому скріншоти цього HDR релізу, а також інших фільмів зроблені з SDR монітора? Вони ж не передають яості зображення, а лише виглядають пересвіченими та блідими і псують загальну картину релізу ?

marinich 
Частий відвідувач


З нами з: 05.03.11
Востаннє: 17.01.21
Повідомлень: 49

2020-12-26 15:55  
igor911
З якоїсь 3.х версії почало їсти багато пам'яті, то не ставлю останні версії.

sandman 
VIP


З нами з: 12.08.12
Востаннє: 17.01.21
Повідомлень: 419

2020-12-26 16:13  
marinich, в будь-якому випадку проблема саме клієнта, а не торент файла, бо, щонайменше восьмеро, прямо зараз завантажують нормально.

Додано через 10 хвилин 46 секунд:

sanyokfuriv, монітор все підтримує. Просто скріншоти робляться не монітором (printscreen), а плеєром. А він дає таку картинку, хоча і він сам і монітор підтримують HDR.
Порівняння player vs printscreen


marinich 
Частий відвідувач


З нами з: 05.03.11
Востаннє: 17.01.21
Повідомлень: 49

2020-12-26 16:14  
Скачав qBittorrent в ньому запустилося. Тільки краще він за uTorrent чи гірше?
Jatx_11 
Відео Гуртом - фільмокрай
Відео Гуртом - фільмокрай


З нами з: 20.04.11
Востаннє: 17.01.21
Повідомлень: 985

2020-12-26 16:21  
Дяка за роздачу.
sandman
sanyokfuriv
Є кодек для mpc з яким можна робити нормальні скріни.
marinich
Маю ю та кю-тореннт, другий легший і швидший.

sandman 
VIP


З нами з: 12.08.12
Востаннє: 17.01.21
Повідомлень: 419

2020-12-26 19:25  
Jatx_11, дякую за пораду, але в моєму випадку - не варіант. По-перше, MPC давно не має оновлень (і не планується - команда розробників написала, що вони "на паузі" на невизначений термін, тож, напевно, проєкту кінець) і я на всіх платформах зупинився на VLC. По-друге, і головне, - в мене дуже старенька віндова машина, використовую її лише як сервер для PLEX та просто зберігання даних - вона не тягне навіть відтворення h.265. Муксую, перевіряю і оформляю (власне, скріни теж роблю) 4к релізи на macOS. Там, як ви розумієте, MPC немає). Та і, в принципі, не бачу проблеми в таких скріншотах.
ddereza 
Новенький


З нами з: 29.12.19
Востаннє: 17.01.21
Повідомлень: 1

2020-12-28 21:45  
поддайте газку
el_f_ 
Частий відвідувач


З нами з: 03.01.16
Востаннє: 17.01.21
Повідомлень: 26

2020-12-30 14:40  
теж не відкривається торент файл
sandman 
VIP


З нами з: 12.08.12
Востаннє: 17.01.21
Повідомлень: 419

2020-12-30 15:07  
el_f_, чтайте вище - проблема клієнта. Оновіть існуючий або встановіть інший
[email protected] 
VIP


З нами з: 24.03.17
Востаннє: 18.01.21
Повідомлень: 645

2021-01-01 10:04  
Привіт, додайте швидкості!!!!
Kozak133 
Частий відвідувач


З нами з: 07.12.15
Востаннє: 15.01.21
Повідомлень: 39

2021-01-12 21:37  
Торрент файл не працює, помилку торенту дає
igor911 
Модератор відео


З нами з: 18.01.08
Востаннє: 18.01.21
Повідомлень: 15325

2021-01-12 21:39  
Kozak133 написано:
помилку торенту дає

скористайтесь іншим, більш сучасним клієнтом

dimadiana 
Частий відвідувач


З нами з: 14.12.09
Востаннє: 17.01.21
Повідомлень: 28

2021-01-14 07:24  
Вау-вау-вау!!!
Чекав, доки з'явиться ГП Колекція в 4К. Ви не уявляєте, наскільки я Вам вдячний, sandman!

Ваш часовий пояс: GMT + 2 Години

Нова тема   Відповісти