Ми можемо бути героями / We Can Be Heroes (2020) 720p Eng | sub Ukr

Нові коментарі

Нова тема   Відповісти
Автор Повідомлення
killer2015 
VIP


З нами з: 30.01.15
Востаннє: 11.04.21
Повідомлень: 451

2020-12-25 13:14  
Ми можемо бути героями / We Can Be Heroes (2020) 720p Eng | sub Ukr

Ми можемо бути героями / We Can Be Heroes (2020) 720p Eng | sub Ukr


Жанр: бойовик, драма, фентезі
Країна: США



Кінокомпанія: Netflix
Режисер: Роберт Родріґес
Актори: Педро Паскаль, Пріянка Чопра, Крістіан Слейтер, Бойд Голбрук, Крістофер МакДональд, Санг Кенг, Хала Фінл та інші

Сюжет:
Після того, як супергероїв Землі викрадають інопланетні загарбники, їхні діти об'єднуються в команду і вчаться працювати спільно для того, щоб врятувати світ і своїх батьків.


Тривалість: 01:40:41
Якість: 720p
Відео:
кодек: H.263
розмір кадру: 1280x720
бітрейт: 3 650 кб/с

Аудіо:
мова: англійська
переклад: оригінал
кодек: 5.1
бітрейт: 640 кб/с

Субтитри:
мова: українська
(власний переклад з російської)
тип: програмні (м'які)
формат: *.rt
МІ
General
Unique ID : 187124115313037910666357490855559428479 (0x8CC6CB2FE99215BDD9B5A75B83F9F97F)
Complete name : G:\Фільми\We.Can.Be.Heroes.2020.NF..720p.seleZen_uk\We.Can.Be.Heroes.2020.NF..720p.seleZen_uk.
Format :
Format version : Version 4
File size : 2.90 GiB
Duration : 1 h 40 min
Overall bit rate mode : Variable
Overall bit rate : 4 118 kb/s
Movie name : We.Can.Be.Heroes.2020 from seleZen
Encoded date : UTC 2020-12-25 09:57:55
Writing application : v47.0.0 ('Black Flag') 64-bit
Writing library : libebml v1.3.10 + v1.5.2

Video
ID : 1
Format : AVC
Format/Info : Advanced Video Codec
Format profile : [email protected]
Format settings : CABAC / 3 Ref Frames
Format settings, CABAC : Yes
Format settings, Reference frames : 3 frames
Codec ID : V_MPEG4/ISO/AVC
Duration : 1 h 40 min
Bit rate mode : Variable
Bit rate : 3 650 kb/s
Maximum bit rate : 5 475 kb/s
Width : 1 280 pixels
Height : 720 pixels
Display aspect ratio : 16:9
Frame rate mode : Constant
Frame rate : 23.976 (24000/1001) FPS
Color space : YUV
Chroma subsampling : 4:2:0
Bit depth : 8 bits
Scan type : Progressive
Bits/(Pixel*Frame) : 0.165
Stream size : 2.44 GiB (84%)
Writing library : core 148 r2722 1b0121b
Encoding settings : cabac=1 / ref=3 / deblock=1:0:0 / analyse=0x1:0x111 / me=umh / subme=10 / psy=1 / psy_rd=1.00:0.00 / mixed_ref=1 / me_range=24 / chroma_me=1 / trellis=2 / 8x8dct=0 / cqm=0 / deadzone=21,11 / fast_pskip=1 / chroma_qp_offset=-2 / threads=8 / lookahead_threads=1 / sliced_threads=0 / nr=0 / decimate=1 / interlaced=0 / bluray_compat=0 / stitchable=1 / constrained_intra=0 / bframes=2 / b_pyramid=0 / b_adapt=2 / b_bias=0 / direct=3 / weightb=1 / open_gop=0 / weightp=2 / keyint=250 / keyint_min=23 / scenecut=0 / intra_refresh=0 / rc_lookahead=48 / rc=2pass / mbtree=1 / bitrate=3650 / ratetol=1.0 / qcomp=0.50 / qpmin=6 / qpmax=51 / qpstep=4 / cplxblur=20.0 / qblur=0.5 / vbv_maxrate=5475 / vbv_bufsize=7300 / nal_hrd=vbr / filler=0 / ip_ratio=1.40 / aq=1:1.00
Language : English
Default : Yes
Forced : No

Audio
ID : 2
Format : E-AC-3
Format/Info : Enhanced AC-3
Commercial name : Dolby Digital Plus
Codec ID : A_EAC3
Duration : 1 h 40 min
Bit rate mode : Constant
Bit rate : 640 kb/s
Channel(s) : 6 channels
Channel layout : L R C LFE Ls Rs
Sampling rate : 48.0 kHz
Frame rate : 31.250 FPS (1536 SPF)
Compression mode : Lossy
Stream size : 461 MiB (16%)
Title : English
Language : English
Service kind : Complete Main
Default : No
Forced : No
Скріншоти








Джерело:
Особиста оцінка: 0 - не дивився


 Трекер:    Зареєстрований   

Завантажити / скачати фільм українською



відео для новачків



 Зареєстрований:   2020-12-25 13:14
 Розмір:   2.9 GB 
 Оцінка фільму:   9.2/10 (Голосів: 9)
   
killer2015 
VIP


З нами з: 30.01.15
Востаннє: 11.04.21
Повідомлень: 451

2020-12-25 13:16  

Ваш часовий пояс: GMT + 2 Години

Нова тема   Відповісти