Таємничий сад / The Secret Garden (2017) 1080p Ukr/Eng | Sub Eng

Нові коментарі

Нова тема   Відповісти
Автор Повідомлення
Anonymous 







2020-12-25 11:24  
Таємничий сад / The Secret Garden (2017) 1080p Ukr/Eng | Sub Eng

Таємничий сад / The Secret Garden (2017) 1080p Ukr/Eng | Sub Eng


Жанр: сімейний, стімпанк
Країна: США



Кінокомпанія: Dogwood Motion Picture Company
Режисер: Оуен Сміт
Актори: Гленнеллен Андерсон, Аманда Вотерс, Ерін Лі Бушко, Макс Рівер, Саша А. Дзюба, Марк Ешворт, Ханна Файрман, Паден Гарретт Андерсон, Майкл Вон

Сюжет:
Стімпанк-версія класичного роману Френсіс Бернетт. Сирота Мері Леннокс змушена переїхати до будинку свого дядька, де вона знаходить таємний сад, повний химерних винаходів і рослин на паровій тязі, і допомагає своєму двоюрідному братові вилікуватися від загадкової хвороби.
Офіційний трейлер:

Рейтинг у США: TV-G - для глядачів будь-якого віку
Вікова категорія: 0+
Тривалість: 01:29:36
Якість: 1080p
Відео:
кодек:
розмір кадру: 1916 х 1076
бітрейт: 5206 кб/с

Аудіо # 1:
мова: українська
переклад: багатоголосий закадровий
кодек: 2.0 [стерео]
бітрейт: 192 кб/с

Аудіо # 2:
мова: англійська
переклад: оригінал
кодек: 5.1
бітрейт: 384 кб/с

Субтитри # 1:
мова: англійська (SDH)
тип: програмні (м'які)
формат: *.srt

Збережено оригінальні розділи
Info
Код:
Complete name               : The Secret Garden (2017) [Ukr,Eng sub.Eng] 1080p [Hurtom].
Format                      :
Format version              : Version 4
File size                   : 3.62 GiB
Duration                    : 1 h 29 min
Overall bit rate            : 5 784 kb/s
Movie name                  : Таємничий сад / The Secret Garden (2017) [Ukr,Eng sub.Eng] 1080p [Hurtom]
Encoded date                : UTC 2020-12-25 15:19:20
Writing application         : v51.0.0 ('I Wish') 64-bit
Writing library             : libebml v1.4.0 + v1.6.2
Cover                       : Yes
Attachments                 : cover.jpg

Video
ID                          : 1
Format                      : AVC
Format/Info                 : Advanced Video Codec
Format profile              : [email protected]
Format settings             : CABAC / 4 Ref Frames
Format settings, CABAC      : Yes
Format settings, Reference  : 4 frames
Codec ID                    : V_MPEG4/ISO/AVC
Duration                    : 1 h 29 min
Bit rate                    : 5 206 kb/s
Width                       : 1 916 pixels
Height                      : 1 076 pixels
Display aspect ratio        : 16:9
Frame rate mode             : Constant
Frame rate                  : 23.976 (24000/1001) FPS
Color space                 : YUV
Chroma subsampling          : 4:2:0
Bit depth                   : 8 bits
Scan type                   : Progressive
Bits/(Pixel*Frame)          : 0.105
Stream size                 : 3.26 GiB (90%)
Title                       : Таємничий сад / The Secret Garden (2017) 1080p [FGT]
Language                    : English
Default                     : Yes
Forced                      : No
Color range                 : Limited
Color primaries             : BT.709
Transfer characteristics    : BT.709
Matrix coefficients         : BT.709

Audio #1
ID                          : 2
Format                      : AC-3
Format/Info                 : Audio Coding 3
Commercial name             : Dolby Digital
Codec ID                    : A_AC3
Duration                    : 1 h 29 min
Bit rate mode               : Constant
Bit rate                    : 192 kb/s
Channel(s)                  : 2 channels
Channel layout              : L R
Sampling rate               : 48.0 kHz
Frame rate                  : 31.250 FPS (1536 SPF)
Compression mode            : Lossy
Delay relative to video     : -42 ms
Stream size                 : 123 MiB (3%)
Title                       : MVO [AMC], 2.0 [stereo] 192 Kbps
Language                    : Ukrainian
Service kind                : Complete Main
Default                     : Yes
Forced                      : Yes

Audio #2
ID                          : 3
Format                      : AC-3
Format/Info                 : Audio Coding 3
Commercial name             : Dolby Digital
Codec ID                    : A_AC3
Duration                    : 1 h 29 min
Bit rate mode               : Constant
Bit rate                    : 384 kb/s
Channel(s)                  : 6 channels
Channel layout              : L R C LFE Ls Rs
Sampling rate               : 48.0 kHz
Frame rate                  : 31.250 FPS (1536 SPF)
Compression mode            : Lossy
Delay relative to video     : -42 ms
Stream size                 : 246 MiB (7%)
Title                       : Original, 5.1 384 Kbps
Language                    : English
Service kind                : Complete Main
Default                     : No
Forced                      : No

Text
ID                          : 4
Format                      : UTF-8
Codec ID                    : S_TEXT/UTF8
Codec ID/Info               : UTF-8 Plain Text
Duration                    : 1 h 29 min
Bit rate                    : 61 b/s
Count of elements           : 1195
Stream size                 : 40.1 KiB (0%)
Title                       : Eng SDH
Language                    : English
Default                     : No
Forced                      : No

Menu
00:00:00.000                : en:Chapter 1
00:10:00.600                : en:Chapter 2
00:20:01.200                : en:Chapter 3
00:30:01.800                : en:Chapter 4
00:40:02.399                : en:Chapter 5
00:50:02.998                : en:Chapter 6
01:00:03.597                : en:Chapter 7
01:10:04.196                : en:Chapter 8
01:20:04.796                : en:Chapter 9
01:28:30.426                : en:End Credits



Джерело: &
Подяка п.Arsenfpu за українську доріжку.


 Трекер:    Зареєстрований   

Завантажити / скачати фільм українською



відео для новачків



 Зареєстрований:   2020-12-25 17:44
 Розмір:   3.62 GB 
 Оцінка фільму:   8.8/10 (Голосів: 4)
 ЗАЛИШАЙТЕСЬ ЯКОМОГА ДОВШЕ НА РОЗДАЧІ! ЗАВАНТАЖИВ САМ - ДАЙ ЗАВАНТАЖИТИ ІНШИМ!
   
Інші релізи
   Таємничий сад / The Secret Garden (2017) AVC Arsenfpu  11 / 0   1.56 GB   2020-12-25 11:03 
Ваш часовий пояс: GMT + 2 Години

Нова тема   Відповісти