Психвіль (Сезон 1, Серії 1-6 з 7) / Psychoville (Season 1, Episodes 1-6 from 7) (2009) 720p Eng | Sub Ukr/Eng

Нові коментарі

Нова тема   Відповісти
Автор Повідомлення
krabapka 
Свій


З нами з: 15.08.15
Востаннє: 17.01.21
Повідомлень: 117

2020-12-24 23:24  
Психвіль (Сезон 1, Серії 1-6 з 7) / Psychoville (Season 1, Episodes 1-6 from 7) (2009) 720p Eng | Sub Ukr/Eng

Психвіль (Сезон 1, Серії 1-6 з 7) / Psychoville (Season 1, Episodes 1-6 from 7) (2009) 720p Eng | Sub Ukr/Eng




Жанр: комедія, жахи, містика, чорна комедія
Країна: Велика Британія



Режисер: Метт Ліпсі
Актори: Ріс Ширсміт, Стів Пембертон, Дон Френч, Ліза Хаммонд, Дейзі Хаггард

Сюжет:
Чорна комедія-трилер від ВВС.
Вони всі живуть у різних куточках країни: моторошний клоун з рукою-гаком, сліпий дідуган із дивакуватими інтересами, медсестра із дитиною-лялькою, карлик із даром телекінезу, хлопець, який живе зі своєю мамцею та цікавиться серійними вбивцями. Вони всі різні, і, здається, ніяк одне з одним не пов'язані. Але одного дня всі вони отримують листи, у яких написано: "Я знаю, що ти зробив."


Трейлер




Тривалість: 00:28:59 (цілком серій 6 з 7)
Перелік серій:

1. Blackmail
2. Lomax
3. Jelly
4. David and Maureen
5. Joy
6. Robert
7. Ravenhill
Якість:
Відео:
кодек:
розмір кадру: 1280 х 720
бітрейт: 5685 кб/с

Аудіо:
мова: англійська
переклад: оригінал
кодек: 2.0
бітрейт: 1536 кб/с

Субтитри: (окремими файлами)
мова: українська
тип: програмні (м'які)
формат: *.srt

Субтитри:
мова: англійська
тип: програмні (м'які)
формат: *.srt

Джерело субтитрів:
Власний любительський переклад.
Info

Format :
Format version : Version 2
File size : 1.46 GiB
Duration : 28 min 59 s
Overall bit rate : 7 193 kb/s

Video
Format : AVC
Format/Info : Advanced Video Codec
Format profile : [email protected]
Format settings, CABAC : Yes
Format settings, RefFrames : 5 frames
Codec ID : V_MPEG4/ISO/AVC
Duration : 28 min 59 s
Bit rate : 5 685 kb/s
Width : 1 280 pixels
Height : 720 pixels
Display aspect ratio : 16:9
Frame rate mode : Constant
Frame rate : 25.000 FPS
Color space : YUV
Chroma subsampling : 4:2:0
Bit depth : 8 bits
Scan type : Progressive
Bits/(Pixel*Frame) : 0.247
Stream size : 1.12 GiB (77%)
Writing library : core 72 r1222 d0ee6f8

Language : English
Default : Yes
Forced : No

Audio
Format :
Codec ID : A_DTS
Duration : 28 min 59 s
Bit rate mode : Constant
Bit rate : 1 509 kb/s
Channel(s) : 2 channels
Channel positions : Front: L R
Sampling rate : 48.0 kHz
Frame rate : 93.750 FPS (512 SPF)
Bit depth : 24 bits
Compression mode : Lossy
Stream size : 313 MiB (21%)
Default : Yes
Forced : No

Text
Format : UTF-8
Codec ID : S_TEXT/UTF8
Codec ID/Info : UTF-8 Plain Text
Language : English
Default : Yes
Forced : No
Скріншоти







Джерело:
Особиста оцінка: 10 - без зайвих вагань рекомендую всім!


Золотий реліз (завантажене не впливає на рейтинг)
 Трекер:    Зареєстрований   

Завантажити / скачати серіал українською



відео для новачків



 Зареєстрований:   2021-01-13 19:30
 Розмір:   8.74 GB 
 Оцінка серіалу:   10/10 (Голосів: 1)
   
kino. 
Модератор відео


З нами з: 27.06.10
Востаннє: 17.01.21
Повідомлень: 2919

2020-12-25 09:33  
Скріншоти повинні бути у форматі . png.
додайте звіт медіо інфо
krabapka написано:
бітрейт: 64 кб/с
точно?
krabapka 
Свій


З нами з: 15.08.15
Востаннє: 17.01.21
Повідомлень: 117

2020-12-25 13:31  
kino.
Змінила бітрейт і додала медіаінфо. Зараз перероблю скріншоти.

Скріншоти done.
Сьогодні планую додати другу серію.

kino. 
Модератор відео


З нами з: 27.06.10
Востаннє: 17.01.21
Повідомлень: 2919

2020-12-25 16:19  
krabapka написано:
розмір кадру: 1280 х 720

скріншот з субтитрами 1366*768
Яке джерело субтитрів?

krabapka 
Свій


З нами з: 15.08.15
Востаннє: 17.01.21
Повідомлень: 117

2020-12-25 16:30  
kino.
Скрін з сабами робила інакше, по через збереження програвачем субтитри на кадрі не відображалися. Українські саби мого перекладу.

Переробила скріншот

krabapka 
Свій


З нами з: 15.08.15
Востаннє: 17.01.21
Повідомлень: 117

2020-12-25 20:38  
Торент оновлено
Додано серію 2.

igor911 
Модератор відео


З нами з: 18.01.08
Востаннє: 17.01.21
Повідомлень: 15325

2020-12-27 01:13  
krabapka, додайте, будь ласка, перелік серій та вкажіть тривалість у форматі серіалу (для прикладу див. https://toloka.to/t110641 чи https://toloka.to/t105339 )

Додано через 3 хвилини 42 секунди:

створити нормальний скріншот з субтитрами (оригінального розміру у png) можна ось так https://toloka.to/t38787#780104 або так https://toloka.to/t526-30#1242932

krabapka 
Свій


З нами з: 15.08.15
Востаннє: 17.01.21
Повідомлень: 117

2020-12-28 22:27  
ТОРЕНТ ОНОВЛЕНО.
Додано серію 3.

krabapka 
Свій


З нами з: 15.08.15
Востаннє: 17.01.21
Повідомлень: 117

2021-01-02 22:57  
Торент оновлено.
Додано серію 4.

krabapka 
Свій


З нами з: 15.08.15
Востаннє: 17.01.21
Повідомлень: 117

2021-01-09 21:04  
ТОРРЕНТ ОНОВЛЕНО.
Додано серію 5

krabapka 
Свій


З нами з: 15.08.15
Востаннє: 17.01.21
Повідомлень: 117

2021-01-13 19:31  
ТОРРЕНТ ОНОВЛЕНО
Додано серію 6.

Ваш часовий пояс: GMT + 2 Години

Нова тема   Відповісти