Опівнічне небо / The Midnight Sky (2020) 720p Eng | sub Ukr

Нові коментарі

Нова тема   Відповісти
Автор Повідомлення
killer2015 
VIP


З нами з: 30.01.15
Востаннє: 16.04.21
Повідомлень: 476

2020-12-23 15:44  
Опівнічне небо / The Midnight Sky (2020) 720p Eng | sub Ukr

Опівнічне небо / The Midnight Sky (2020) 720p Eng | sub Ukr


Жанр: драма, пригодницький, фантастика
Країна: США



Кінокомпанія: Anonymous Content, Netflix
Режисер: Джордж Клуні
Актори: Джордж Клуні, Фелісіті Джонс, Софі Рандл, Кайл Чандлер, Девід Ойелоуо, Деміан Бішир, Едан Гейгерст

Сюжет:
Літній астроном Авґустін все життя вивчає зірки. Коли приходять новини про якусь катастрофу, він залишається абсолютно один на арктичній дослідної станції. Саме там він зустрічає загадкову дівчинку Айріс, поки поступово затихають відгомони решти світу. Паралельно з тривалої місії з Юпітера повертається екіпаж корабля «Ефір» на чолі з капітаном Салліван. Авґустін і Салліван знаходяться за мільйони миль один від одного, але їх долі нерозривно пов'язані.


Тривалість: 01:58:32
Якість: 720p
Відео:
кодек:
розмір кадру: 1280x720
бітрейт: 1464 кб/с

Аудіо:
мова: англійська
переклад: оригінал
кодек: E- 5.1
бітрейт: 768 кб/с

Субтитри:
мова: українська
(власний переклад з російської)
тип: програмні (м'які)
формат: *.srt
МІ
General
Unique ID : 140804217402549895120729867835273184497 (0x69EDE7E662C2E6CD352E9AE07BB104F1)
Complete name : G:\Фільми\The.Midnight.Sky.2020.NF..720p.seleZen_uk\The.Midnight.Sky.2020.NF..720p.seleZen_uk.
Format :
Format version : Version 4
File size : 1.82 GiB
Duration : 1 h 58 min
Overall bit rate mode : Variable
Overall bit rate : 2 200 kb/s
Movie name : The.Midnight.Sky.2020. from seleZen
Encoded date : UTC 2020-12-23 12:16:09
Writing application : v47.0.0 ('Black Flag') 64-bit
Writing library : libebml v1.3.10 + v1.5.2

Video
ID : 1
Format : AVC
Format/Info : Advanced Video Codec
Format profile : [email protected]
Format settings : CABAC / 3 Ref Frames
Format settings, CABAC : Yes
Format settings, Reference frames : 3 frames
Codec ID : V_MPEG4/ISO/AVC
Duration : 1 h 58 min
Bit rate mode : Variable
Bit rate : 1 464 kb/s
Maximum bit rate : 3 075 kb/s
Width : 1 280 pixels
Height : 720 pixels
Display aspect ratio : 16:9
Frame rate mode : Constant
Frame rate : 24.000 FPS
Color space : YUV
Chroma subsampling : 4:2:0
Bit depth : 8 bits
Scan type : Progressive
Bits/(Pixel*Frame) : 0.066
Stream size : 1.18 GiB (65%)
Writing library : core 148 r2722 1b0121b
Encoding settings : cabac=1 / ref=3 / deblock=1:0:0 / analyse=0x1:0x111 / me=umh / subme=10 / psy=1 / psy_rd=1.00:0.00 / mixed_ref=1 / me_range=24 / chroma_me=1 / trellis=2 / 8x8dct=0 / cqm=0 / deadzone=21,11 / fast_pskip=1 / chroma_qp_offset=-2 / threads=8 / lookahead_threads=1 / sliced_threads=0 / nr=0 / decimate=1 / interlaced=0 / bluray_compat=0 / stitchable=1 / constrained_intra=0 / bframes=2 / b_pyramid=0 / b_adapt=2 / b_bias=0 / direct=3 / weightb=1 / open_gop=0 / weightp=2 / keyint=250 / keyint_min=24 / scenecut=0 / intra_refresh=0 / rc_lookahead=48 / rc=2pass / mbtree=1 / bitrate=1464 / ratetol=1.0 / qcomp=0.50 / qpmin=6 / qpmax=51 / qpstep=4 / cplxblur=20.0 / qblur=0.5 / vbv_maxrate=3075 / vbv_bufsize=4100 / nal_hrd=vbr / filler=0 / ip_ratio=1.40 / aq=1:1.00
Language : English
Default : Yes
Forced : No

Audio
ID : 2
Format : E-AC-3 JOC
Format/Info : Enhanced AC-3 with Joint Object Coding
Commercial name : Dolby Digital Plus with Dolby Atmos
Codec ID : A_EAC3
Duration : 1 h 58 min
Bit rate mode : Constant
Bit rate : 768 kb/s
Channel(s) : 6 channels
Channel layout : L R C LFE Ls Rs
Sampling rate : 48.0 kHz
Frame rate : 31.250 FPS (1536 SPF)
Compression mode : Lossy
Stream size : 651 MiB (35%)
Title : English
Language : English
Service kind : Complete Main
Default : No
Forced : No
Complexity index : 16
Number of dynamic objects : 15
Bed channel count : 1 channel
Bed channel configuration : LFE
Скріншоти







Джерело:
Особиста оцінка: 8 - мені сподобалося


 Трекер:    Зареєстрований   

Завантажити / скачати фільм українською



відео для новачків



 Зареєстрований:   2020-12-23 15:44
 Розмір:   1.82 GB 
 Оцінка фільму:   8.9/10 (Голосів: 17)
   
Інші релізи
   Опівнічне небо / The Midnight Sky (2020) 720p Ukr/Eng | sub Ukr/Eng Done56  40 / 1   1.99 GB   2020-12-30 16:03 
   Опівнічне небо / The Midnight Sky (2020) AVC Ukr/Eng Done56  30 / 0   1.29 GB   2020-12-30 16:03 
killer2015 
VIP


З нами з: 30.01.15
Востаннє: 16.04.21
Повідомлень: 476

2020-12-23 15:46  
Стрімінговий сервіс Netflix уклав партнерську угоду з двома українськими студіями дубляжу.

Про це пише "Радіо Свобода"

Українські студії озвучення Postmodern Postproduction і Так Треба Продакшн стали партнерами американської компанії стрімінгових сервісів Netflix.

Обидві компанії отримали найвищий партнерський статус – Gold і зможуть займатися створення українського дубляжу, інформує FILM.UA Group, до структури якої входять обидві студії.

Коли у сервісі з’являться перші фільми з українською озвучкою, поки що не повідомляють.

Що ж доведеться задовольнятися сабами... і то не офіційними)))

vic7400 
Частий відвідувач


З нами з: 25.01.13
Востаннє: 16.04.21
Повідомлень: 35

2020-12-23 22:42  
за титри дуже вдячний АВТОРУ
killer2015 
VIP


З нами з: 30.01.15
Востаннє: 16.04.21
Повідомлень: 476

2020-12-24 15:32  
vic7400

Вам дякую!

nosferatumes 
Свій


З нами з: 12.10.16
Востаннє: 16.04.21
Повідомлень: 91

2021-01-06 13:25  
Сподобався 7/10. Чудова, повільна наукова фантастика. Цікаво спостерігати за головними героями. Персонаж Джорджа Клуні не викликає ні краплини співчуття, проте щось захопливе у ньому є. А ось за екіпаж космічного корабля співпереживав. Раджу до перегляду.
Ваш часовий пояс: GMT + 2 Години

Нова тема   Відповісти