Поліцейський загін! (Сезон 1) / Police Squad! (Season 1) (1982) 1080p H.265 Ukr/Eng | Eng Sub

Нові коментарі

Нова тема   Відповісти
Автор Повідомлення
Anonymous 







2020-12-23 14:32  
Поліцейський загін! (Сезон 1) / Police Squad! (Season 1) (1982) 1080p H.265 Ukr/Eng | Eng Sub

Поліцейський загін! (Сезон 1) / Police Squad! (Season 1) (1982) 1080p H.265 Ukr/Eng | Eng Sub


Жанр: детектив, комедія
Країна: США
Кінокомпанія: Paramount Pictures / ABC
Режисер: Девід та Джері Цукери, Джим Абрагамс, Джо Данте, Джордж Стенфорд Браун, Пол Красний, Реза Бадії
Актори: Леслі Нільсен, Алан Норт, Пітер Лупус

Сюжет:
Комедійний пародійний серіал 1982 року був позитивно оцінений критиками та глядачами, попри це його скасували після 6 серії. Але серіал став основою для відомої трилогії "Голий пістолет". Серіал розповідає про детектива Френка Дребіна та його боса Еда Гокена, що розплутують складні злочини, потрапляючи в комічні ситуації.

Тривалість: 1 серія: 25:00 (цілком серій: 6)
Перелік серій
1. A Substantial Gift (The Broken Promise) - Солідний подарунок (Порушена обіцянка)
2. Ring of Fear (A Dangerous Assignment) - Ринг страху (Небезпечне завдання)
3. The Butler Did It (A Bird in the Hand) - Вбивця дворецький (Синиця в руках)
4. Revenge and Remorse (The Guilty Alibi) - Помста та каяття (Винне алібі)
5. Rendezvous at Big Gulch (Terror in the Neighborhood) - Рандеву біля великої ущелини (Жах по сусідству)
6. Testimony of Evil (Dead Men Don't Laugh) - Свідчення зла (Мерці не сміються)
Якість:

Відео:
кодек: H.265 (HEVC)
розмір кадру: 1440 x 1080
бітрейт: 8 136 кб/с
бітова глибина: 10 біт

Увага! Перед завантаженням переконайтесь, що ваш пристрій відтворення (та/або ПЗ) підтримує H.265 (HEVC)

Аудіо # 1:
мова: українська
озвучення: одноголосе закадрове
кодек: AC-3 2.0
бітрейт: 320 кб/с

Аудіо # 2:
мова: англійська
озвучення: оригінал
кодек: 5.1
бітрейт: 1510 кб/с

Аудіо # 3:
мова: англійська
озвучення: оригінал | коментарі
кодек: AC-3 2.0
бітрейт: 192 кб/с

Субтитри # 1: (Full)
мова: англійська
тип: програмні (м'які)
формат: *.srt


Інформація про файл
Код:
General
Unique ID                                : 119211884440073537232202709868466045429 (0x59AF5FB128F4C6F17222A1717FA281F5)
Complete name                            : 1. Police Squad! (1982) - S01E01 - A Substantial Gift (The Broken Promise) - 1080p H.265 [UKR_ENG] [Hurtom].
Format                                   :
Format version                           : Version 4
File size                                : 1.78 GiB
Duration                                 : 25 min 7 s
Overall bit rate                         : 10.2 Mb/s
Movie name                               : 1. A Substantial Gift (The Broken Promise) - Солідний подарунок (Порушена обіцянка)
Encoded date                             : UTC 2020-12-23 11:43:33
Writing application                      : v20.0.0 ('I Am The Sun') 64-bit
Writing library                          : libebml v1.3.5 + v1.4.8
Cover                                    : Yes
Attachments                              : Cover.jpg

Video
ID                                       : 1
Format                                   : HEVC
Format/Info                              : High Efficiency Video Coding
Format profile                           : Main [email protected]@High
Codec ID                                 : V_MPEGH/ISO/HEVC
Duration                                 : 25 min 7 s
Bit rate                                 : 8 135 kb/s
Width                                    : 1 440 pixels
Height                                   : 1 080 pixels
Display aspect ratio                     : 4:3
Frame rate mode                          : Constant
Frame rate                               : 23.976 (24000/1001) FPS
Color space                              : YUV
Chroma subsampling                       : 4:2:0
Bit depth                                : 10 bits
Bits/(Pixel*Frame)                       : 0.218
Stream size                              : 1.43 GiB (80%)
Title                                    : 1. A Substantial Gift (The Broken Promise) - Солідний подарунок (Порушена обіцянка)
Writing library                          : x265 3.4+4-g3ae3d7116:[Windows][GCC 10.2.0][64 bit] 10bit
Encoding settings                        : cpuid=1111039 / frame-threads=3 / numa-pools=8 / wpp / no-pmode / no-pme / no-psnr / no-ssim / log-level=2 / input-csp=1 / input-res=1440x1080 / interlace=0 / total-frames=36138 / level-idc=41 / high-tier=1 / uhd-bd=0 / ref=5 / no-allow-non-conformance / no-repeat-headers / annexb / no-aud / no-hrd / info / hash=0 / no-temporal-layers / open-gop / min-keyint=23 / keyint=240 / gop-lookahead=0 / bframes=8 / b-adapt=2 / b-pyramid / bframe-bias=0 / rc-lookahead=40 / lookahead-slices=0 / scenecut=40 / hist-scenecut=0 / radl=0 / no-splice / no-intra-refresh / ctu=64 / min-cu-size=8 / rect / amp / max-tu-size=32 / tu-inter-depth=4 / tu-intra-depth=4 / limit-tu=1 / rdoq-level=2 / dynamic-rd=0.00 / no-ssim-rd / signhide / no-tskip / nr-intra=0 / nr-inter=0 / no-constrained-intra / no-strong-intra-smoothing / max-merge=5 / limit-refs=3 / no-limit-modes / me=3 / subme=7 / merange=57 / temporal-mvp / no-frame-dup / no-hme / weightp / weightb / no-analyze-src-pics / deblock=-3:-3 / no-sao / no-sao-non-deblock / rd=6 / selective-sao=0 / no-early-skip / rskip / no-fast-intra / no-tskip-fast / no-cu-lossless / b-intra / no-splitrd-skip / rdpenalty=0 / psy-rd=2.00 / psy-rdoq=1.00 / no-rd-refine / no-lossless / cbqpoffs=0 / crqpoffs=0 / rc=crf / crf=19.0 / qcomp=0.60 / qpstep=4 / stats-write=0 / stats-read=0 / vbv-maxrate=50000 / vbv-bufsize=50000 / vbv-init=0.9 / crf-max=0.0 / crf-min=0.0 / ipratio=1.40 / pbratio=1.30 / aq-mode=1 / aq-strength=1.00 / no-cutree / zone-count=0 / no-strict-cbr / qg-size=32 / no-rc-grain / qpmax=69 / qpmin=0 / no-const-vbv / sar=1 / overscan=0 / videoformat=5 / range=0 / colorprim=2 / transfer=2 / colormatrix=2 / chromaloc=0 / display-window=0 / cll=0,0 / min-luma=0 / max-luma=1023 / log2-max-poc-lsb=8 / vui-timing-info / vui-hrd-info / slices=1 / no-opt-qp-pps / no-opt-ref-list-length-pps / no-multi-pass-opt-rps / scenecut-bias=0.00 / hist-threshold=0.01 / no-opt-cu-delta-qp / no-aq-motion / no-hdr10 / no-hdr10-opt / no-dhdr10-opt / no-idr-recovery-sei / analysis-reuse-level=0 / analysis-save-reuse-level=0 / analysis-load-reuse-level=0 / scale-factor=0 / refine-intra=0 / refine-inter=0 / refine-mv=1 / refine-ctu-distortion=0 / no-limit-sao / ctu-info=0 / no-lowpass-dct / refine-analysis-type=0 / copy-pic=1 / max-ausize-factor=1.0 / no-dynamic-refine / no-single-sei / no-hevc-aq / no-svt / no-field / qp-adaptation-range=1.00 / no-scenecut-aware-qpconformance-window-offsets / right=0 / bottom=0 / decoder-max-rate=0
Language                                 : English
Default                                  : Yes
Forced                                   : No

Audio #1
ID                                       : 2
Format                                   : AC-3
Format/Info                              : Audio Coding 3
Commercial name                          : Dolby Digital
Codec ID                                 : A_AC3
Duration                                 : 25 min 7 s
Bit rate mode                            : Constant
Bit rate                                 : 320 kb/s
Channel(s)                               : 2 channels
Channel layout                           : L R
Sampling rate                            : 48.0 kHz
Frame rate                               : 31.250 FPS (1536 SPF)
Compression mode                         : Lossy
Stream size                              : 57.5 MiB (3%)
Title                                    : AC-3 / 2.0 Ch / 320 kbps / VO
Language                                 : Ukrainian
Service kind                             : Complete Main
Default                                  : Yes
Forced                                   : Yes

Audio #2
ID                                       : 3
Format                                   :
Format/Info                              : Digital Theater Systems
Codec ID                                 : A_DTS
Duration                                 : 25 min 7 s
Bit rate mode                            : Constant
Bit rate                                 : 1 509 kb/s
Channel(s)                               : 6 channels
Channel layout                           : C L R Ls Rs LFE
Sampling rate                            : 48.0 kHz
Frame rate                               : 93.750 FPS (512 SPF)
Bit depth                                : 24 bits
Compression mode                         : Lossy
Stream size                              : 271 MiB (15%)
Title                                    : / 5.1 Ch / 1509 kbps / Original
Language                                 : English
Default                                  : No
Forced                                   : No

Audio #3
ID                                       : 4
Format                                   : AC-3
Format/Info                              : Audio Coding 3
Commercial name                          : Dolby Digital
Codec ID                                 : A_AC3
Duration                                 : 25 min 7 s
Bit rate mode                            : Constant
Bit rate                                 : 192 kb/s
Channel(s)                               : 2 channels
Channel layout                           : L R
Sampling rate                            : 48.0 kHz
Frame rate                               : 31.250 FPS (1536 SPF)
Compression mode                         : Lossy
Stream size                              : 34.5 MiB (2%)
Title                                    : AC-3 / 2.0 Ch / 192 kbps / Original / Commentary
Language                                 : English
Service kind                             : Complete Main
Default                                  : No
Forced                                   : No

Text
ID                                       : 5
Format                                   : UTF-8
Codec ID                                 : S_TEXT/UTF8
Codec ID/Info                            : UTF-8 Plain Text
Duration                                 : 24 min 54 s
Bit rate                                 : 89 b/s
Count of elements                        : 420
Stream size                              : 16.4 KiB (0%)
Title                                    : Full
Language                                 : English
Default                                  : No
Forced                                   : No

Menu
00:00:00.000                             : en:Chapter 1
00:03:54.943                             : en:Chapter 2
00:12:45.431                             : en:Chapter 3
00:23:55.267                             : en:Chapter 4
Лог кодування
Код:
x265 [info]: frame I: 153, Avg QP:17.20 kb/s: 22687.41
x265 [info]: frame P: 7293, Avg QP:18.55 kb/s: 17231.37
x265 [info]: frame B: 28692, Avg QP:20.53 kb/s: 5744.65
x265 [info]: Weighted P-Frames: Y:25.9% UV:18.3%
x265 [info]: Weighted B-Frames: Y:13.1% UV:6.8%
x265 [info]: consecutive B-frames: 0.8% 1.2% 2.2% 45.4% 11.1% 37.3% 1.3% 0.4% 0.2%
x265 [info]: encoded 36138 frames in 31642.10s (1.14 fps), 8134.51 kb/s, Avg QP:20.12
Світлини







Джерело: & &
Особиста оцінка: 0 - не дивився


Авторський реліз (завантажувати можна без реєстрації)
 Трекер:    Зареєстрований   

Завантажити / скачати серіал українською



відео для новачків



 Зареєстрований:   2020-12-23 14:32
 Розмір:   10 GB 
 Оцінка серіалу:   10/10 (Голосів: 6)
   
Ваш часовий пояс: GMT + 2 Години

Нова тема   Відповісти