2012 / 2012 (2009) UHD 4K 2160p HDR H.265 Ukr/Eng | Sub Eng

Нові коментарі

Нова тема   Відповісти
Автор Повідомлення
RoMeL 
Відео Гуртом - підтримка та поширення
Відео Гуртом - підтримка та поширення


З нами з: 09.07.08
Востаннє: 27.01.21
Повідомлень: 323

2020-12-23 02:12  
2012 / 2012 (2009) UHD 4K 2160p HDR H.265 Ukr/Eng | Sub Eng



Жанр: екшн, пригодницький, фантастика
Країна: США



Кінокомпанія: Columbia Pictures Corporation, Centropolis Entertainment, Farewell Productions
Режисер: Роланд Еммеріх / Roland Emmerich
Актори: Джон К'юсак / John Cusack, Аманда Піт / Amanda Peet, Чіветель Еджіофор / Chiwetel Ejiofor, Тенді Ньютон / Thandie Newton, Олівер Плат / Oliver Platt, Том МакКарті / Tom McCarthy, Вуді Гарельсон / Woody Harrelson, Денні Ґловер / Danny Glover, Ліам Джеймс / Liam James, Морґан Лілі / Morgan Lily, Беатріс Роузен / Beatrice Rosen та інші.

Сюжет:
Згідно з календарем індіанців Майя, в 2012 році планети сонячної системи опиняться на одній лінії, що призведе до глобальних природних катаклізмів: сильні землетруси, цунамі і виверження вулканів перетворять країни і цілі континенти в руїни. Нещодавно вчені підтвердили, що цей міф може стати реальністю...


Тривалість: 02:37:49
Якість: 4K 2160p HDR H.265
Відео:
кодек: H.265 (HEVC)
розмір кадру: 3840 х 1600
бітрейт: 31,8 Мбіт/сек
бітова глибина: 10 біт
кольоровий простір: BT.2020 (HDR)

Увага! Перед завантаженням переконайтесь, що ваш пристрій відтворення (та/або ПЗ) підтримує H.265 (HEVC)

Аудіо # 1:
мова: українська
переклад: професійний дубльований
кодек: 5.1
бітрейт: 448 кб/с

Аудіо # 2:
мова: англійська
переклад: оригінал
кодек: -HD MA 5.1
бітрейт: 2155 кб/с

Аудіо # 3:
мова: англійська
переклад: оригінал
кодек: 5.1
бітрейт: 640 кб/с

Аудіо # 4:
мова: англійська
переклад: коментарі до фільму
кодек: 2.0
бітрейт: 192 кб/с

Субтитри # 1:
мова: українська (Forced)
тип: програмні (м'які)
формат: *.srt

Субтитри # 2-3:
мова: англійська (Forced, Full)
тип: програмні (м'які)
формат: *.srt
Info
Код:
General
Unique ID                                : 19933490687819452104409988877112537457 (0xEFF0CF8219E913D7B5058BC64477171)
Complete name                            : /Volumes/Download/Movies/2012.2009..2160p.HDR.[Ukr.Eng].
Format                                   :
Format version                           : Version 4
File size                                : 38.6 GiB
Duration                                 : 2 h 37 min
Overall bit rate mode                    : Variable
Overall bit rate                         : 35.0 Mb/s
Movie name                               : 2012.2009..2160p.HDR.[Ukr.Eng]
Encoded date                             : UTC 2020-12-17 17:02:54
Writing application                      : v51.0.0 ('I Wish') 64-bit
Writing library                          : libebml v1.4.0 + v1.6.2
Cover                                    : Yes
Attachments                              : cover.jpg

Video
ID                                       : 1
Format                                   : HEVC
Format/Info                              : High Efficiency Video Coding
Format profile                           : Main [email protected]@Main
HDR format                               : SMPTE ST 2086, HDR10 compatible
Codec ID                                 : V_MPEGH/ISO/HEVC
Duration                                 : 2 h 36 min
Bit rate                                 : 31.8 Mb/s
Width                                    : 3 840 pixels
Height                                   : 1 600 pixels
Display aspect ratio                     : 2.40:1
Frame rate mode                          : Constant
Frame rate                               : 23.976 (24000/1001) FPS
Color space                              : YUV
Chroma subsampling                       : 4:2:0
Bit depth                                : 10 bits
Bits/(Pixel*Frame)                       : 0.216
Stream size                              : 34.8 GiB (90%)
Default                                  : Yes
Forced                                   : No
Color range                              : Limited
Color primaries                          : BT.2020
Transfer characteristics                 : PQ
Matrix coefficients                      : BT.2020 non-constant
Mastering display color primaries        : Display P3
Mastering display luminance              : min: 0.0050 cd/m2, max: 3999 cd/m2
Maximum Content Light Level              : 4000 cd/m2
Maximum Frame-Average Light Level        : 1000 cd/m2

Audio #1
ID                                       : 2
Format                                   : AC-3
Format/Info                              : Audio Coding 3
Commercial name                          : Dolby Digital
Codec ID                                 : A_AC3
Duration                                 : 2 h 37 min
Bit rate mode                            : Constant
Bit rate                                 : 448 kb/s
Channel(s)                               : 6 channels
Channel layout                           : L R C LFE Ls Rs
Sampling rate                            : 48.0 kHz
Frame rate                               : 31.250 FPS (1536 SPF)
Compression mode                         : Lossy
Stream size                              : 505 MiB (1%)
Title                                    : / 5.1 Ch / 448 kbps / ПД / Blu-Ray / Neva Film
Language                                 : Ukrainian
Service kind                             : Complete Main
Default                                  : Yes
Forced                                   : Yes

Audio #2
ID                                       : 3
Format                                   : XLL
Format/Info                              : Digital Theater Systems
Commercial name                          : -HD Master Audio
Codec ID                                 : A_DTS
Duration                                 : 2 h 36 min
Bit rate mode                            : Variable
Bit rate                                 : 2 155 kb/s
Channel(s)                               : 6 channels
Channel layout                           : C L R Ls Rs LFE
Sampling rate                            : 48.0 kHz
Frame rate                               : 93.750 FPS (512 SPF)
Bit depth                                : 16 bits
Compression mode                         : Lossless
Delay relative to video                  : 6 ms
Stream size                              : 2.36 GiB (6%)
Language                                 : English
Default                                  : No
Forced                                   : No

Audio #3
ID                                       : 4
Format                                   : AC-3
Format/Info                              : Audio Coding 3
Commercial name                          : Dolby Digital
Codec ID                                 : A_AC3
Duration                                 : 2 h 37 min
Bit rate mode                            : Constant
Bit rate                                 : 640 kb/s
Channel(s)                               : 6 channels
Channel layout                           : L R C LFE Ls Rs
Sampling rate                            : 48.0 kHz
Frame rate                               : 31.250 FPS (1536 SPF)
Compression mode                         : Lossy
Stream size                              : 722 MiB (2%)
Title                                    : / 5.1 Ch / 640 kbps / Original
Language                                 : English
Service kind                             : Complete Main
Default                                  : No
Forced                                   : No

Audio #4
ID                                       : 5
Format                                   : AC-3
Format/Info                              : Audio Coding 3
Commercial name                          : Dolby Digital
Codec ID                                 : A_AC3
Duration                                 : 2 h 36 min
Bit rate mode                            : Constant
Bit rate                                 : 192 kb/s
Channel(s)                               : 2 channels
Channel layout                           : L R
Sampling rate                            : 48.0 kHz
Frame rate                               : 31.250 FPS (1536 SPF)
Compression mode                         : Lossy
Delay relative to video                  : 6 ms
Stream size                              : 216 MiB (1%)
Title                                    : English commentary
Language                                 : English
Service kind                             : Complete Main
Default                                  : No
Forced                                   : No

Text #1
ID                                       : 6
Format                                   : UTF-8
Codec ID                                 : S_TEXT/UTF8
Codec ID/Info                            : UTF-8 Plain Text
Duration                                 : 1 h 31 min
Bit rate                                 : 0 b/s
Count of elements                        : 3
Stream size                              : 101 Bytes (0%)
Title                                    : Forced
Language                                 : Ukrainian
Default                                  : Yes
Forced                                   : Yes

Text #2
ID                                       : 7
Format                                   : UTF-8
Codec ID                                 : S_TEXT/UTF8
Codec ID/Info                            : UTF-8 Plain Text
Duration                                 : 2 h 12 min
Bit rate                                 : 2 b/s
Count of elements                        : 80
Stream size                              : 2.48 KiB (0%)
Title                                    : Forced
Language                                 : English
Default                                  : No
Forced                                   : No

Text #3
ID                                       : 8
Format                                   : UTF-8
Codec ID                                 : S_TEXT/UTF8
Codec ID/Info                            : UTF-8 Plain Text
Duration                                 : 2 h 28 min
Bit rate                                 : 55 b/s
Count of elements                        : 1917
Stream size                              : 59.9 KiB (0%)
Title                                    : Full
Language                                 : English
Default                                  : No
Forced                                   : No

Menu
00:00:00.000                             : :00:00:00.000
00:01:17.994                             : :00:01:17.994
00:02:09.336                             : :00:02:09.337
00:03:08.479                             : :00:03:08.479
00:04:57.422                             : :00:04:57.422
00:05:47.180                             : :00:05:47.180
00:07:25.194                             : :00:07:25.194
00:10:43.351                             : :00:10:43.351
00:12:41.761                             : :00:12:41.761
00:14:26.448                             : :00:14:26.448
00:18:18.680                             : :00:18:18.680
00:25:39.079                             : :00:25:39.079
00:30:49.472                             : :00:30:49.472
00:36:10.501                             : :00:36:10.501
00:38:53.706                             : :00:38:53.706
00:42:18.994                             : :00:42:18.994
00:44:44.014                             : :00:44:44.014
00:49:08.070                             : :00:49:08.070
00:52:17.092                             : :00:52:17.092
00:56:50.907                             : :00:56:50.907
00:58:01.102                             : :00:58:01.102
01:00:09.689                             : :01:00:09.689
01:03:31.390                             : :01:03:31.390
01:07:17.241                             : :01:07:17.241
01:10:08.203                             : :01:10:08.204
01:13:48.090                             : :01:13:48.090
01:24:19.429                             : :01:24:19.429
01:29:10.303                             : :01:29:10.303
01:32:07.813                             : :01:32:07.813
01:33:38.195                             : :01:33:38.195
01:42:48.245                             : :01:42:48.245
01:48:10.317                             : :01:48:10.317
01:56:41.744                             : :01:56:41.744
01:59:40.047                             : :01:59:40.047
02:06:50.686                             : :02:06:50.686
02:09:12.911                             : :02:09:12.911
02:09:48.280                             : :02:09:48.280
02:13:22.369                             : :02:13:22.369
02:23:25.305                             : :02:23:25.305
Скріншоти










Джерело: &
Особиста оцінка: 10 - без зайвих вагань рекомендую всім!


 Трекер:    Зареєстрований   

Завантажити / скачати фільм українською



відео для новачків



 Зареєстрований:   2020-12-26 03:56
 Розмір:   38.61 GB 
 Оцінка фільму:   8.2/10 (Голосів: 6)
   
Інші релізи
   2012 / 2012 (2009) UHD Remux 4K 2160p HDR H.265 Ukr/Eng | Sub Eng MediumHD  3 / 1   61.03 GB   2021-01-26 18:19 
   2012 / 2012 (2009) 1080p H.265 Ukr/Eng | Sub Eng -Star-Lord-  9 / 0   9.46 GB   2019-09-27 23:42 
   2012 / 2012 (2009) AVC Ukr/Eng | Sub Eng Sando7  7 / 0   3.52 GB   2019-03-03 15:39 
   2012 / 2012 (2009) 1080p | Open Matte Ukr/Eng | Sub Eng staf777  2 / 0   10.5 GB   2018-04-03 16:16 
   2012 / 2012 (2009) AVC Drool  3 / 0   2.15 GB   2011-07-26 16:11 
   2012 / 2012 (2009) Ukr/Eng | Sub Ukr/Eng MutuLI  7 / 0   2.92 GB   2011-01-08 10:36 
   2012 / 2012 (2009) 720p Ukr/Rus/Eng | Sub Rus/Eng kszitadel  3 / 0   9.74 GB   2010-02-01 20:57 
   2012 / 2012 (2009) 1080p Ukr/Eng bbuzzy  3 / 0   15.43 GB   2010-01-28 12:19 
bot 
робот


З нами з: 30.09.07
Востаннє: 26.05.05
Повідомлень: 26992

2020-12-23 02:12  
Тему перенесено з Фільми в HD до форуму Анонси релізів


RoMeL

Blanove 
Поважний учасник


З нами з: 01.05.15
Востаннє: 04.01.21
Повідомлень: 168

2020-12-23 16:02  
вже не актуально, та й взагалі, це було тільки припущення про кінець світу згідно календаря Майя. Насправді там про апокаліпсис не йдеться. Прочитайте, кому цікаво "Український історик з міста Південне на Харківщині Юрій Кнорозов розшифрував писемність майя"
Стосовно формату 4k - воно ж (це кіно) знімалося в FullHD, як з нього зробити 2160р? Просто розтягли конвертером??

MutuLI 
Відео Гуртом - фільмокрай
Відео Гуртом - фільмокрай


З нами з: 08.03.09
Востаннє: 28.01.21
Повідомлень: 2067

2020-12-23 16:59  
Є повні українські субтитри від Netflix
https://www.opensubtitles.org/uk/subtitles/8469250/2012-uk
синхронізовані під Blu-Ray 02:37:49

winjer 
Новенький


З нами з: 20.03.16
Востаннє: 22.01.21
Повідомлень: 18

2020-12-24 10:13  
Blanove
оффіційний 4К реліз відбудиться 19 січня 2021 року

bot 
робот


З нами з: 30.09.07
Востаннє: 26.05.05
Повідомлень: 26992

2020-12-26 03:55  
Тему перенесено з Анонси релізів до форуму Фільми в HD


RoMeL

RoMeL 
Відео Гуртом - підтримка та поширення
Відео Гуртом - підтримка та поширення


З нами з: 09.07.08
Востаннє: 27.01.21
Повідомлень: 323

2020-12-26 03:57  
як вже написали в січні буде блюрей 4K, тоді реліз буде оновлено
RoMeL 
Відео Гуртом - підтримка та поширення
Відео Гуртом - підтримка та поширення


З нами з: 09.07.08
Востаннє: 27.01.21
Повідомлень: 323

2021-01-20 20:18  
появився 4K блюрей, реліз буде найближчим часом оновлено Happy
Ваш часовий пояс: GMT + 2 Години

Нова тема   Відповісти