Жовта троянда (Жовта ружа) / Yellow Rose (2019) 1080p Eng | Sub Ukr/Eng

Нові коментарі

Нова тема   Відповісти
Автор Повідомлення
Anonymous 







2020-12-22 02:27  
Жовта троянда (Жовта ружа) / Yellow Rose (2019) 1080p Eng | Sub Ukr/Eng

Жовта троянда (Жовта ружа) / Yellow Rose (2019) 1080p Eng | Sub Ukr/Eng
Український та альтернативний постери:




Жанр: драма, музичний
Країна: Філіппіни, США



Кінокомпанія: Home Away Productions, Civilian Studios
Режисер: Дайан Парагас / Diane Paragas
Актори: Ліа Салонга / Lea Salonga, Єва Ноблезада / Eva Noblezada, Густаво Гомез / Gustavo Gomez, Лаям Бут / Liam Booth, Келсі Прибильски, Дейл Вотсон, Ліббі Вілларі, Хіт Янг, Кеннет Вейн Бредлі та інші

Сюжет:
Юна філіпінка Ґейл з маленького містечка в Техасі намагається здійснити свою мрію — стати виконавицею кантрі-музики. Дівчині слід вирішити: залишитися з родиною, чи покинути свій дім.
Офіційний трейлер:

Рейтинг MPAA: PG-13 - дітям до 13 років перегляд не бажаний
Вікова категорія: 12+
Тривалість: 01:34:23
Якість: 1080p
Відео:
кодек:
розмір кадру: 1920х790
бітрейт: 4607 кб/с

Аудіо:
мова: англійська
переклад: оригінал
кодек: 5.1
бітрейт: 384 кб/с

Субтитри # 1:
мова: українська
тип: програмні (м'які)
формат: *.srt
переклад: офіційний, Володимир Фатун

Субтитри # 2:
мова: англійська
тип: програмні (м'які)
формат: *.srt

Збережено оригінальні розділи
Info
Код:
Complete name               : Yellow Rose (2019) [Eng sub Ukr,Eng] 1080p [Hurtom].
Format                      :
Format version              : Version 4
File size                   : 3.29 GiB
Duration                    : 1 h 34 min
Overall bit rate            : 4 993 kb/s
Movie name                  : Жовта троянда / Yellow Rose (2019) [Eng sub Ukr,Eng] 1080p [Hurtom]
Encoded date                : UTC 2020-12-21 22:58:14
Writing application         : v51.0.0 ('I Wish') 64-bit
Writing library             : libebml v1.4.0 + v1.6.2
Cover                       : Yes
Attachments                 : cover.jpg

Video
ID                          : 1
Format                      : AVC
Format/Info                 : Advanced Video Codec
Format profile              : [email protected]
Format settings             : CABAC / 5 Ref Frames
Format settings, CABAC      : Yes
Format settings, Reference  : 5 frames
Codec ID                    : V_MPEG4/ISO/AVC
Duration                    : 1 h 34 min
Bit rate                    : 4 607 kb/s
Width                       : 1 920 pixels
Height                      : 790 pixels
Display aspect ratio        : 2.40:1
Frame rate mode             : Constant
Frame rate                  : 23.976 FPS
Color space                 : YUV
Chroma subsampling          : 4:2:0
Bit depth                   : 8 bits
Scan type                   : Progressive
Bits/(Pixel*Frame)          : 0.127
Stream size                 : 3.04 GiB (92%)
Title                       : Жовта троянда / Yellow Rose (2019) 1080p [EVO]
Language                    : English
Default                     : Yes
Forced                      : No
Color range                 : Limited
Color primaries             : BT.709
Transfer characteristics    : BT.709
Matrix coefficients         : BT.709

Audio
ID                          : 2
Format                      : AC-3
Format/Info                 : Audio Coding 3
Commercial name             : Dolby Digital
Codec ID                    : A_AC3
Duration                    : 1 h 34 min
Bit rate mode               : Constant
Bit rate                    : 384 kb/s
Channel(s)                  : 6 channels
Channel layout              : L R C LFE Ls Rs
Sampling rate               : 48.0 kHz
Frame rate                  : 31.250 FPS (1536 SPF)
Compression mode            : Lossy
Delay relative to video     : -42 ms
Stream size                 : 259 MiB (8%)
Language                    : English
Service kind                : Complete Main
Default                     : Yes
Forced                      : No

Text #1
ID                          : 3
Format                      : UTF-8
Codec ID                    : S_TEXT/UTF8
Codec ID/Info               : UTF-8 Plain Text
Duration                    : 1 h 32 min
Bit rate                    : 67 b/s
Count of elements           : 1013
Stream size                 : 45.5 KiB (0%)
Title                       : Ukr Full
Language                    : Ukrainian
Default                     : Yes
Forced                      : Yes

Text #2
ID                          : 4
Format                      : UTF-8
Codec ID                    : S_TEXT/UTF8
Codec ID/Info               : UTF-8 Plain Text
Duration                    : 1 h 28 min
Bit rate                    : 47 b/s
Count of elements           : 996
Stream size                 : 30.6 KiB (0%)
Title                       : Eng Full
Language                    : English
Default                     : No
Forced                      : No

Menu
00:00:00.000                : en:1
00:07:36.456                : en:2
00:10:36.969                : en:3
00:15:06.404                : en:4
00:20:44.825                : en:5
00:26:49.980                : en:6
00:32:10.799                : en:7
00:38:49.656                : en:8
00:43:16.630                : en:9
00:49:11.693                : en:10
00:55:50.841                : en:11
00:59:52.040                : en:12
01:04:03.123                : en:13
01:09:36.830                : en:14
01:15:40.818                : en:15
01:24:26.385                : en:16



Джерело: &
Подяка за надані субтитри п.subTrader (subscene.com)

У випадку появи українського озвучення реліз буде оновлено.


 Трекер:    Зареєстрований   

Завантажити / скачати фільм українською



відео для новачків



 Зареєстрований:   2020-12-22 02:27
 Розмір:   3.29 GB 
 Оцінка фільму:   10/10 (Голосів: 1)
 ЗАЛИШАЙТЕСЬ ЯКОМОГА ДОВШЕ НА РОЗДАЧІ! ЗАВАНТАЖИВ САМ - ДАЙ ЗАВАНТАЖИТИ ІНШИМ!
   
Ваш часовий пояс: GMT + 2 Години

Нова тема   Відповісти