Різдвяне шоу Мераї Кері / Mariah Carey's Magical Christmas Special (2020) 1080p Eng | Sub Ukr/Eng

Нові коментарі

Нова тема   Відповісти
Автор Повідомлення
Anonymous 







2020-12-21 21:26  
Різдвяне шоу Мераї Кері / Mariah Carey's Magical Christmas Special (2020) 1080p Eng | Sub Ukr/Eng

Різдвяне шоу Мераї Кері / Mariah Carey's Magical Christmas Special (2020) 1080p Eng | Sub Ukr/Eng


Жанр: мюзикл, фентезі, пригодницький, сімейний
Країна: США



Кінокомпанія: Done and Dusted Productions
Режисер: Роман Коппола / Roman Coppola, Хаміш Гемілтон / Hamish Hamilton
Актори: Мерая Кері, Тіффані Хеддіш, Аріана Гранде, Біллі Айкнер, Дженніфер Гадсон, Снуп Догг, Місті Коупленд, Майлак-Мішель Гарріс, Джермейн Дюпрі, Монро Кеннон та інші

Сюжет:
Коли світ стикається з кризою святкових розваг, є лише одна людина, яка може її вирішити: велика подруга Санти - Мерая Кері.
Офіційний трейлер:

Рейтинг у США: TV-G - для глядачів будь-якого віку
Вікова категорія: 0+
Тривалість: 00:43:43
Якість: 1080p
Відео:
кодек:
розмір кадру: 1920х1080
бітрейт: 9605 кб/с

Аудіо # 1:
мова: англійська
переклад: оригінал
кодек: E- 5.1
бітрейт: 768 кб/с

Аудіо # 2:
мова: англійська
переклад: оригінал
кодек: 2.0
бітрейт: 320 кб/с

Субтитри # 1:
мова: українська
тип: програмні (м'які)
формат: *.srt
переклад: офіційний, Олена Цехмейструк

Субтитри # 2-3:
мова: англійська (повні, SDH)
тип: програмні (м'які)
формат: *.srt
Info
Код:
Complete name               : Mariah Carey's Magical Christmas Special (2020) [Eng sub.Ukr,Eng] 1080p [Hurtom].
Format                      :
Format version              : Version 4
File size                   : 3.27 GiB
Duration                    : 43 min 43 s
Overall bit rate            : 10.7 Mb/s
Movie name                  : Різдвяне шоу Мераї Кері / Mariah Carey's Magical Christmas Special (2020) [Eng sub.Ukr,Eng] 1080p [Hurtom]
Encoded date                : UTC 2020-12-21 21:11:54
Writing application         : v51.0.0 ('I Wish') 64-bit
Writing library             : libebml v1.4.0 + v1.6.2
Cover                       : Yes
Attachments                 : cover.jpg

Video
ID                          : 1
Format                      : AVC
Format/Info                 : Advanced Video Codec
Format profile              : [email protected]
Format settings             : CABAC / 4 Ref Frames
Format settings, CABAC      : Yes
Format settings, Reference  : 4 frames
Codec ID                    : V_MPEG4/ISO/AVC
Duration                    : 43 min 43 s
Bit rate                    : 9 605 kb/s
Width                       : 1 920 pixels
Height                      : 1 080 pixels
Display aspect ratio        : 16:9
Frame rate mode             : Constant
Frame rate                  : 23.976 (24000/1001) FPS
Color space                 : YUV
Chroma subsampling          : 4:2:0
Bit depth                   : 8 bits
Scan type                   : Progressive
Bits/(Pixel*Frame)          : 0.193
Stream size                 : 2.93 GiB (90%)
Title                       : Різдвяне шоу Мераї Кері / Mariah Carey's Magical Christmas Special (2020) 1080p [ATVP, NOGRP]
Language                    : English
Default                     : Yes
Forced                      : No
Color range                 : Limited
Color primaries             : BT.709
Transfer characteristics    : BT.709
Matrix coefficients         : BT.709

Audio #1
ID                          : 2
Format                      : E-AC-3 JOC
Format/Info                 : Enhanced AC-3 with Joint Object Coding
Commercial name             : Dolby Digital Plus with Dolby Atmos
Codec ID                    : A_EAC3
Duration                    : 43 min 43 s
Bit rate mode               : Constant
Bit rate                    : 768 kb/s
Channel(s)                  : 6 channels
Channel layout              : L R C LFE Ls Rs
Sampling rate               : 48.0 kHz
Frame rate                  : 31.250 FPS (1536 SPF)
Compression mode            : Lossy
Stream size                 : 240 MiB (7%)
Title                       : Original, E- 5.1 768 Kbps
Language                    : English
Service kind                : Complete Main
Default                     : Yes
Forced                      : No
Complexity index            : 16
Number of dynamic objects   : 15
Bed channel count           : 1 channel
Bed channel configuration   : LFE

Audio #2
ID                          : 3
Format                      : AC-3
Format/Info                 : Audio Coding 3
Commercial name             : Dolby Digital
Codec ID                    : A_AC3
Duration                    : 43 min 43 s
Bit rate mode               : Constant
Bit rate                    : 320 kb/s
Channel(s)                  : 2 channels
Channel layout              : L R
Sampling rate               : 48.0 kHz
Frame rate                  : 31.250 FPS (1536 SPF)
Compression mode            : Lossy
Stream size                 : 100 MiB (3%)
Title                       : Original, 2.0 320 Kbps
Language                    : English
Service kind                : Complete Main
Default                     : No
Forced                      : No

Text #1
ID                          : 4
Format                      : UTF-8
Codec ID                    : S_TEXT/UTF8
Codec ID/Info               : UTF-8 Plain Text
Duration                    : 43 min 34 s
Bit rate                    : 104 b/s
Count of elements           : 604
Stream size                 : 33.4 KiB (0%)
Title                       : Ukr Full [Apple TV+]
Language                    : Ukrainian
Default                     : Yes
Forced                      : Yes

Text #2
ID                          : 5
Format                      : UTF-8
Codec ID                    : S_TEXT/UTF8
Codec ID/Info               : UTF-8 Plain Text
Duration                    : 43 min 2 s
Bit rate                    : 69 b/s
Count of elements           : 588
Stream size                 : 21.9 KiB (0%)
Language                    : English
Default                     : No
Forced                      : No

Text #3
ID                          : 6
Format                      : UTF-8
Codec ID                    : S_TEXT/UTF8
Codec ID/Info               : UTF-8 Plain Text
Duration                    : 43 min 4 s
Bit rate                    : 87 b/s
Count of elements           : 651
Stream size                 : 27.6 KiB (0%)
Title                       : SDH
Language                    : English
Default                     : No
Forced                      : No



Джерело: &


 Трекер:    Зареєстрований   

Завантажити / скачати фільм українською



відео для новачків



 Зареєстрований:   2020-12-22 00:32
 Розмір:   3.27 GB 
 Оцінка фільму:   5.5/10 (Голосів: 4)
 ЗАЛИШАЙТЕСЬ ЯКОМОГА ДОВШЕ НА РОЗДАЧІ! ЗАВАНТАЖИВ САМ - ДАЙ ЗАВАНТАЖИТИ ІНШИМ!
   
Ваш часовий пояс: GMT + 2 Години

Нова тема   Відповісти