Хлопчик-детектив (Юний детектив) / The Kid Detective (2020) 1080p Eng | Sub Ukr/Eng

Нові коментарі

Нова тема   Відповісти
Автор Повідомлення
Anonymous 







2020-12-21 19:14  
Хлопчик-детектив / The Kid Detective (2020) 1080p Eng | Sub Ukr/Eng

Хлопчик-детектив (Юний детектив) / The Kid Detective (2020) 1080p Eng | Sub Ukr/Eng
Оригінальний постер:

Хлопчик-детектив (Юний детектив) / The Kid Detective (2020) 1080p Eng | Sub Ukr/Eng


Жанр: детектив, драма, комедія
Країна: Канада



Кінокомпанія: Woods Entertainment, JoBro Productions & Film Finance
Режисер: Івен Морґан / Evan Morgan
Актори: Адам Броді / Adam Brody, Софі Нелісс / Sophie Nélisse, Сара Сазерленд / Sarah Sutherland, Ма Ці / Tzi Ma, Джессі Ной Груман / Jesse Noah Gruman, Венді Крюсон / Wendy Crewson, Джонатан Вітейкер / Jonathan Whittaker, Пітер Макніл / Peter MacNeill, Ліза Труонг / Lisa Truong, Софія Вебстер / Sophia Webster, Даллас Едвардс / Dallas Edwards та інші

Сюжет:
Колись він був відомим хлопчиком-детективом, що з легкістю розгадував простенькі справи своїх однолітків, родичів і сусідів зі свого району. Але тепер йому 32 роки, а він все так же колупається в "дитячих" таємницях, чергуючи їх між затяжним похміллям і нападами жалості до себе. Але одного разу клієнтка просить розслідувати вбивство свого хлопця...
Офіційний трейлер:

Рейтинг MPAA: R - особам до 17 років обов'язкова присутність батьків або дорослого опікуна
Вікова категорія: 16+
Тривалість: 01:39:25
Якість: 1080p
Відео:
кодек:
розмір кадру: 1920х802
бітрейт: 4588 кб/с

Аудіо:
мова: англійська
переклад: оригінал
кодек: 5.1
бітрейт: 384 кб/с

Субтитри # 1:
мова: українська
тип: програмні (м'які)
формат: *.srt
переклад: офіційний, Володимир Фатун

Субтитри # 2:
мова: англійська
тип: програмні (м'які)
формат: *.srt

Збережено оригінальні розділи
Info
Код:

Complete name               : The Kid Detective (2020) [Eng sub.Ukr,Eng] 1080p [Hurtom].
Format                      :
Format version              : Version 4
File size                   : 3.45 GiB
Duration                    : 1 h 39 min
Overall bit rate            : 4 975 kb/s
Movie name                  : Хлопчик-детектив / The Kid Detective (2020) [Eng sub.Ukr,Eng] 1080p [Hurtom]
Encoded date                : UTC 2020-12-21 17:13:56
Writing application         : v51.0.0 ('I Wish') 64-bit
Writing library             : libebml v1.4.0 + v1.6.2
Cover                       : Yes
Attachments                 : cover.jpg

Video
ID                          : 1
Format                      : AVC
Format/Info                 : Advanced Video Codec
Format profile              : [email protected]
Format settings             : CABAC / 5 Ref Frames
Format settings, CABAC      : Yes
Format settings, Reference  : 5 frames
Codec ID                    : V_MPEG4/ISO/AVC
Duration                    : 1 h 39 min
Bit rate                    : 4 588 kb/s
Width                       : 1 920 pixels
Height                      : 802 pixels
Display aspect ratio        : 2.40:1
Frame rate mode             : Constant
Frame rate                  : 23.976 (23976/1000) FPS
Color space                 : YUV
Chroma subsampling          : 4:2:0
Bit depth                   : 8 bits
Scan type                   : Progressive
Bits/(Pixel*Frame)          : 0.124
Stream size                 : 3.19 GiB (92%)
Title                       : Хлопчик-детектив / The Kid Detective (2020) 1080p [EVO]
Language                    : English
Default                     : Yes
Forced                      : No
Color range                 : Limited
Color primaries             : BT.709
Transfer characteristics    : BT.709
Matrix coefficients         : BT.709

Audio
ID                          : 2
Format                      : AC-3
Format/Info                 : Audio Coding 3
Commercial name             : Dolby Digital
Codec ID                    : A_AC3
Duration                    : 1 h 39 min
Bit rate mode               : Constant
Bit rate                    : 384 kb/s
Channel(s)                  : 6 channels
Channel layout              : L R C LFE Ls Rs
Sampling rate               : 48.0 kHz
Frame rate                  : 31.250 FPS (1536 SPF)
Compression mode            : Lossy
Delay relative to video     : -42 ms
Stream size                 : 273 MiB (8%)
Language                    : English
Service kind                : Complete Main
Default                     : Yes
Forced                      : No

Text #1
ID                          : 3
Format                      : UTF-8
Codec ID                    : S_TEXT/UTF8
Codec ID/Info               : UTF-8 Plain Text
Duration                    : 1 h 37 min
Bit rate                    : 68 b/s
Count of elements           : 995
Stream size                 : 49.3 KiB (0%)
Title                       : Ukr Full
Language                    : Ukrainian
Default                     : Yes
Forced                      : Yes

Text #2
ID                          : 4
Format                      : UTF-8
Codec ID                    : S_TEXT/UTF8
Codec ID/Info               : UTF-8 Plain Text
Duration                    : 1 h 32 min
Bit rate                    : 48 b/s
Count of elements           : 1082
Stream size                 : 33.2 KiB (0%)
Title                       : Eng Full
Language                    : English
Default                     : No
Forced                      : No

Menu
00:00:00.000                : en:Chapter 01
00:09:56.000                : en:Chapter 02
00:19:29.000                : en:Chapter 03
00:30:07.000                : en:Chapter 04
00:40:49.000                : en:Chapter 05
00:50:44.000                : en:Chapter 06
00:59:05.000                : en:Chapter 07
01:08:03.000                : en:Chapter 08
01:17:58.000                : en:Chapter 09
01:27:53.000                : en:Chapter 10
01:34:49.000                : en:Chapter 11



Джерело: &
Подяка за надані субтитри п.subTrader (subscene.com)

У випадку появи українського озвучення реліз буде оновлено.


 Трекер:    Зареєстрований   

Завантажити / скачати фільм українською



відео для новачків



 Зареєстрований:   2020-12-21 20:44
 Розмір:   3.45 GB 
 Оцінка фільму:   9.7/10 (Голосів: 6)
 ЗАЛИШАЙТЕСЬ ЯКОМОГА ДОВШЕ НА РОЗДАЧІ! ЗАВАНТАЖИВ САМ - ДАЙ ЗАВАНТАЖИТИ ІНШИМ!
   
bot 
робот


З нами з: 30.09.07
Востаннє: 26.05.05
Повідомлень: 27845

2020-12-21 20:44  
Тему перенесено з Анонси релізів до форуму Фільми


igor911

pankos 
Частий відвідувач


З нами з: 16.01.11
Востаннє: 11.04.21
Повідомлень: 49

2021-01-16 00:38  
Не колупається, а длубається.
Anonymous 







2021-01-16 00:40  
pankos написано:
Не колупається

http://sum.in.ua/s/kolupatysja

yzalyubovska336 
Новенький


З нами з: 17.07.15
Востаннє: 03.04.21
Повідомлень: 2

2021-03-14 06:16  
Хороший і цікавий фільм
Ваш часовий пояс: GMT + 2 Години

Нова тема   Відповісти