Авангард / Ji xian feng / Vanguard (2020) 720p Ukr/Chi | Sub Eng

Нові коментарі

Нова тема   Відповісти
Автор Повідомлення
Anonymous 







2020-12-21 14:44  
Авангард / Ji xian feng / Vanguard (2020) 720p Ukr/Chi | Sub Eng


Жанр: бойовик, кримінальний
Країна: Китай



Кінокомпанія: China Film Group
Режисер: Стенлі Тун
Актори: Джекі Чан, Ян Ян, Мія Муці, Ай Лунь, Чжу Чжентін, Сюй Жохань, Чжэньвэй Ван, Саїд Бадрія, Брахім Ачаббаке, Баррет Коутс та інші

Сюжет:
Світ бізнесу не такий чистий, як може здатися на перший погляд. Якщо хтось перебуває серед топів на міжнародному рівні, він або вона не може бути абсолютно спокійним або спокійною за своє життя та життя членів своєї сім'ї. Так у Великобританії китайського бізнесмена Танга Хуатінга разом із його дочкою Мі Я викрала всесвітньо відома організація найманців-убивць "Арктичні вовки". Вони професійно підготовлені та не дадуть ніяких шансів на порятунок заручників. Єдині, кому під силу це зробити – міжнародна служба безпеки "Авангард", які мають у своєму арсеналі тільки найкращі та передові технології. Вони зроблять усе можливе в цій неймовірно складній місії.


Тривалість: 01:47:18
Якість: 720p
Відео:
кодек:
розмір кадру: 1280x536
бітрейт: 6000 кб/с

Аудіо # 1:
мова: українська
переклад: професійний дубльований
кодек: 5.1
бітрейт: 384 кб/с

Аудіо # 2:
мова: китайська
переклад: оригінал
кодек: 5.1
бітрейт: 640 кб/с

Субтитри: (Forced)
мова: українська
тип: програмні (м'які)
формат: *.srt

Субтитри: (Full)
мова: англійська
тип: програмні (м'які)
формат: *.srt
Info
General
Complete name : Vanguard (2020) 720p [ukr, chi] [Hurtom].
Format :
Format version : Version 4
File size : 5.27 GiB
Duration : 1 h 47 min
Overall bit rate : 7 025 kb/s
Movie name : Авангард / Ji xian feng / Vanguard (2020)
Encoded date : UTC 2021-01-02 11:12:10
Writing application : v30.1.0 ('Forever And More') 64-bit
Writing library : libebml v1.3.6 + v1.4.9
Cover : Yes
Attachments : cover.jpg

Video
ID : 1
Format : AVC
Format/Info : Advanced Video Codec
Format profile : [email protected]
Format settings : CABAC / 12 Ref Frames
Format settings, CABAC : Yes
Format settings, RefFrames : 12 frames
Codec ID : V_MPEG4/ISO/AVC
Duration : 1 h 47 min
Bit rate : 6 000 kb/s
Width : 1 280 pixels
Height : 536 pixels
Display aspect ratio : 2.40:1
Frame rate mode : Constant
Frame rate : 24.000 FPS
Color space : YUV
Chroma subsampling : 4:2:0
Bit depth : 8 bits
Scan type : Progressive
Bits/(Pixel*Frame) : 0.364
Stream size : 4.50 GiB (85%)
Writing library : core 157 r2958 57baac4
Encoding settings : cabac=1 / ref=12 / deblock=1:-3:-3 / analyse=0x3:0x133 / me=umh / subme=10 / psy=1 / psy_rd=1.00:0.00 / mixed_ref=1 / me_range=32 / chroma_me=1 / trellis=2 / 8x8dct=1 / cqm=0 / deadzone=21,11 / fast_pskip=0 / chroma_qp_offset=-2 / threads=33 / lookahead_threads=4 / sliced_threads=0 / nr=0 / decimate=0 / interlaced=0 / bluray_compat=0 / constrained_intra=0 / bframes=8 / b_pyramid=2 / b_adapt=2 / b_bias=0 / direct=3 / weightb=0 / open_gop=0 / weightp=2 / keyint=240 / keyint_min=24 / scenecut=40 / intra_refresh=0 / rc=2pass / mbtree=0 / bitrate=6000 / ratetol=1.0 / qcomp=0.60 / qpmin=0 / qpmax=69 / qpstep=4 / cplxblur=20.0 / qblur=0.5 / ip_ratio=1.40 / pb_ratio=1.30 / aq=1:1.00
Language : English
Default : Yes
Forced : No
Color range : Limited
Color primaries : BT.709
Transfer characteristics : BT.709
Matrix coefficients : BT.709

Audio #1
ID : 2
Format : AC-3
Format/Info : Audio Coding 3
Commercial name : Dolby Digital
Codec ID : A_AC3
Duration : 1 h 47 min
Bit rate mode : Constant
Bit rate : 384 kb/s
Channel(s) : 6 channels
Channel layout : L R C LFE Ls Rs
Sampling rate : 48.0 kHz
Frame rate : 31.250 FPS (1536 SPF)
Bit depth : 16 bits
Compression mode : Lossy
Stream size : 295 MiB (5%)
Title : 5.1 | 384
Language : Ukrainian
Service kind : Complete Main
Default : Yes
Forced : No

Audio #2
ID : 3
Format : AC-3
Format/Info : Audio Coding 3
Commercial name : Dolby Digital
Codec ID : A_AC3
Duration : 1 h 47 min
Bit rate mode : Constant
Bit rate : 640 kb/s
Channel(s) : 6 channels
Channel layout : L R C LFE Ls Rs
Sampling rate : 48.0 kHz
Frame rate : 31.250 FPS (1536 SPF)
Bit depth : 16 bits
Compression mode : Lossy
Stream size : 491 MiB (9%)
Title : 5.1 | 640
Language : Chinese
Service kind : Complete Main
Default : No
Forced : No

Text #1
ID : 4
Format : UTF-8
Codec ID : S_TEXT/UTF8
Codec ID/Info : UTF-8 Plain Text
Duration : 1 h 32 min
Bit rate : 0 b/s
Count of elements : 9
Stream size : 442 Bytes (0%)
Title : Forced
Language : Ukrainian
Default : Yes
Forced : No

Text #2
ID : 5
Format : UTF-8
Codec ID : S_TEXT/UTF8
Codec ID/Info : UTF-8 Plain Text
Duration : 1 h 38 min
Bit rate : 36 b/s
Count of elements : 1316
Stream size : 26.4 KiB (0%)
Title : Full
Language : English
Default : No
Forced : No

Menu
00:00:00.000 : :Chapter 01
00:09:28.750 : :Chapter 02
00:18:20.083 : :Chapter 03
00:26:45.958 : :Chapter 04
00:36:07.208 : :Chapter 05
00:45:34.708 : :Chapter 06
00:53:20.750 : :Chapter 07
01:02:13.458 : :Chapter 08
01:10:39.500 : :Chapter 09
01:19:55.958 : :Chapter 10
01:29:10.041 : :Chapter 11
01:33:06.583 : :Chapter 12
Скріншоти


Джерело:
Особиста оцінка: 0 - не дивився


 Трекер:    Зареєстрований   

Завантажити / скачати фільм українською



відео для новачків



 Зареєстрований:   2021-01-02 14:00
 Розмір:   5.27 GB 
 Оцінка фільму:   6.2/10 (Голосів: 12)
   
Інші релізи
   Авангард / Ji xian feng / Vanguard (2020) antik_2008  10 / 0   1.46 GB   2021-01-02 14:45 
   Авангард / Ji xian feng / Vanguard (2020) 1080p Ukr/Chi | Sub Eng staf777  9 / 0   7.31 GB   2021-01-02 14:28 
   Авангард / Ji xian feng / Vanguard (2020) AVC Ukr/Chi | Sub Eng eneyida.tv  7 / 0   2.6 GB   2021-01-02 13:59 
   Авангард / Ji xian feng / Vanguard (2020) Remux 1080p Ukr/Chi | Sub Eng antik_2008  8 / 0   18.75 GB   2021-01-02 13:56 
Anonymous 







2021-01-02 14:01  
Заміна аудіо на якісніше. 
Ваш часовий пояс: GMT + 2 Години

Нова тема   Відповісти