Авангард / Ji xian feng / Vanguard (2020) Remux 1080p Ukr/Chi | Sub Eng

Нові коментарі

Нова тема   Відповісти
Автор Повідомлення
Anonymous 







2020-12-21 14:32  
Авангард / Ji xian feng / Vanguard (2020) Remux 1080p Ukr/Chi | Sub Eng


Жанр: бойовик, кримінальний
Країна: Китай



Кінокомпанія: China Film Group
Режисер: Стенлі Тун
Актори: Джекі Чан, Ян Ян, Мія Муці, Ай Лунь, Чжу Чжентін, Сюй Жохань, Чжэньвэй Ван, Саїд Бадрія, Брахім Ачаббаке, Баррет Коутс та інші

Сюжет:
Світ бізнесу не такий чистий, як може здатися на перший погляд. Якщо хтось перебуває серед топів на міжнародному рівні, він або вона не може бути абсолютно спокійним або спокійною за своє життя та життя членів своєї сім'ї. Так у Великобританії китайського бізнесмена Танга Хуатінга разом із його дочкою Мі Я викрала всесвітньо відома організація найманців-убивць "Арктичні вовки". Вони професійно підготовлені та не дадуть ніяких шансів на порятунок заручників. Єдині, кому під силу це зробити – міжнародна служба безпеки "Авангард", які мають у своєму арсеналі тільки найкращі та передові технології. Вони зроблять усе можливе в цій неймовірно складній місії.


Тривалість: 01:47:18
Якість: Remux 1080p
Відео:
кодек:
розмір кадру: 1920x1080
бітрейт: 21.4 мб/с

Аудіо # 1:
мова: українська
переклад: професійний дубльований
кодек: 5.1
бітрейт: 384 кб/с

Аудіо # 2:
мова: китайська
переклад: оригінал
кодек: TrueHD + Atmos 5.1
бітрейт: 2473 кб/с

Аудіо # 3:
мова: китайська
переклад: оригінал
кодек: 5.1
бітрейт: 640 кб/с

Субтитри: (Forced)
мова: українська
тип: програмні (м'які)
формат: *.srt

Субтитри: (Full)
мова: англійська
тип: програмні (м'які)
формат: *.srt
Info
General
Complete name : Vanguard (2020) Remux 1080p [ukr, chi] [Hurtom].
Format :
Format version : Version 4
File size : 18.7 GiB
Duration : 1 h 47 min
Overall bit rate mode : Variable
Overall bit rate : 25.0 Mb/s
Movie name : Авангард / Ji xian feng / Vanguard (2020)
Encoded date : UTC 2021-01-02 11:18:31
Writing application : v30.1.0 ('Forever And More') 64-bit
Writing library : libebml v1.3.6 + v1.4.9
Cover : Yes
Attachments : cover.jpg

Video
ID : 1
Format : AVC
Format/Info : Advanced Video Codec
Format profile : [email protected]
Format settings : CABAC / 4 Ref Frames
Format settings, CABAC : Yes
Format settings, RefFrames : 4 frames
Codec ID : V_MPEG4/ISO/AVC
Duration : 1 h 47 min
Bit rate mode : Variable
Bit rate : 21.4 Mb/s
Maximum bit rate : 28.0 Mb/s
Width : 1 920 pixels
Height : 1 080 pixels
Display aspect ratio : 16:9
Frame rate mode : Constant
Frame rate : 24.000 FPS
Standard : NTSC
Color space : YUV
Chroma subsampling : 4:2:0
Bit depth : 8 bits
Scan type : Progressive
Bits/(Pixel*Frame) : 0.431
Stream size : 16.1 GiB (86%)
Language : Chinese
Default : Yes
Forced : No
Color range : Limited
Color primaries : BT.709
Transfer characteristics : BT.709
Matrix coefficients : BT.709

Audio #1
ID : 2
Format : AC-3
Format/Info : Audio Coding 3
Commercial name : Dolby Digital
Codec ID : A_AC3
Duration : 1 h 47 min
Bit rate mode : Constant
Bit rate : 384 kb/s
Channel(s) : 6 channels
Channel layout : L R C LFE Ls Rs
Sampling rate : 48.0 kHz
Frame rate : 31.250 FPS (1536 SPF)
Bit depth : 16 bits
Compression mode : Lossy
Stream size : 295 MiB (2%)
Title : 5.1 | 384
Language : Ukrainian
Service kind : Complete Main
Default : Yes
Forced : No

Audio #2
ID : 3
Format : MLP FBA
Format/Info : Meridian Lossless Packing FBA
Commercial name : Dolby TrueHD
Codec ID : A_TRUEHD
Duration : 1 h 47 min
Bit rate mode : Variable
Bit rate : 2 473 kb/s
Maximum bit rate : 4 944 kb/s
Channel(s) : 6 channels
Channel layout : L R C LFE Ls Rs
Sampling rate : 96.0 kHz
Frame rate : 1 200.000 FPS (80 SPF)
Compression mode : Lossless
Stream size : 1.85 GiB (10%)
Title : TrueHD 5.1 | 2473
Language : Chinese
Default : No
Forced : No

Audio #3
ID : 4
Format : AC-3
Format/Info : Audio Coding 3
Commercial name : Dolby Digital
Codec ID : A_AC3
Duration : 1 h 47 min
Bit rate mode : Constant
Bit rate : 640 kb/s
Channel(s) : 6 channels
Channel layout : L R C LFE Ls Rs
Sampling rate : 48.0 kHz
Frame rate : 31.250 FPS (1536 SPF)
Bit depth : 16 bits
Compression mode : Lossy
Stream size : 491 MiB (3%)
Title : 5.1 | 640
Language : Chinese
Service kind : Complete Main
Default : No
Forced : No

Text #1
ID : 5
Format : UTF-8
Codec ID : S_TEXT/UTF8
Codec ID/Info : UTF-8 Plain Text
Duration : 1 h 32 min
Bit rate : 0 b/s
Count of elements : 9
Stream size : 442 Bytes (0%)
Title : Forced
Language : Ukrainian
Default : Yes
Forced : No

Text #2
ID : 6
Format : UTF-8
Codec ID : S_TEXT/UTF8
Codec ID/Info : UTF-8 Plain Text
Duration : 1 h 38 min
Bit rate : 36 b/s
Count of elements : 1316
Stream size : 26.4 KiB (0%)
Title : Full
Language : English
Default : No
Forced : No

Menu
00:00:00.000 : zh:Глава 01
00:09:28.917 : zh:Глава 02
00:18:20.083 : zh:Глава 03
00:26:45.958 : zh:Глава 04
00:36:07.208 : zh:Глава 05
00:45:35.000 : zh:Глава 06
00:53:20.958 : zh:Глава 07
01:02:13.458 : zh:Глава 08
01:10:39.500 : zh:Глава 09
01:19:55.958 : zh:Глава 10
01:29:10.333 : zh:Глава 11
01:33:06.583 : zh:Глава 12
Скріншоти


Джерело:
Особиста оцінка: 0 - не дивився


Золотий реліз (завантажене не впливає на рейтинг)
 Трекер:    Зареєстрований   

Завантажити / скачати фільм українською



відео для новачків



 Зареєстрований:   2021-01-02 13:56
 Розмір:   18.75 GB 
 Оцінка фільму:   6.3/10 (Голосів: 16)
   
Інші релізи
   Авангард / Ji xian feng / Vanguard (2020) antik_2008  18 / 0   1.46 GB   2021-01-02 14:45 
   Авангард / Ji xian feng / Vanguard (2020) 1080p Ukr/Chi | Sub Eng staf777  12 / 0   7.31 GB   2021-01-02 14:28 
   Авангард / Ji xian feng / Vanguard (2020) 720p Ukr/Chi | Sub Eng antik_2008  3 / 0   5.27 GB   2021-01-02 14:00 
   Авангард / Ji xian feng / Vanguard (2020) AVC Ukr/Chi | Sub Eng eneyida.tv  11 / 0   2.6 GB   2021-01-02 13:59 
ukrnet 
Свій


З нами з: 03.01.14
Востаннє: 24.01.21
Повідомлень: 112

2020-12-23 09:35  
Субтитри китайські є?
Anonymous 







2020-12-23 11:29  
ukrnet написано:
Субтитри китайські є?

Цитата:
Субтитри: (Forced)
мова: українська
тип: програмні (м'які)
формат: *.srt

Субтитри: (Full)
мова: англійська
тип: програмні (м'які)
формат: *.srt

archi86 
Свій


З нами з: 06.01.15
Востаннє: 27.01.21
Повідомлень: 141

2020-12-25 18:51  
Сам фільм цікавий, но дитячі спецефекти це жах, видно компьютерну графіку щей дуже погану.
Anonymous 







2021-01-02 13:57  
Заміна аудіо на якісніше.
Blitzkrieg 
Новенький


З нами з: 21.02.10
Востаннє: 26.01.21
Повідомлень: 18

2021-01-08 11:45  
Вибачаюся....але не зміг і до половини додивитися, навіть з перемотками(((
Unfeir 
Новенький


З нами з: 09.05.19
Востаннє: 25.01.21
Повідомлень: 2

2021-01-10 22:10  
графика и анимация лет на 10 отстала. особенно в погонях
igor911 
Модератор відео


З нами з: 18.01.08
Востаннє: 28.01.21
Повідомлень: 15393

2021-01-10 23:27  
Unfeir, в нас спілкуються українською мовою
Цитата:
2. Правила та обмеження форуму
Всім без винятку заборонено:
2.1 Спілкуватися іншою мовою, аніж літературною українською

Ваш часовий пояс: GMT + 2 Години

Нова тема   Відповісти