Темна Ліга Справедливості: Війна Апоколіпса / Justice League Dark: Apokolips War (2020) Remux 1080p Ukr/Eng | sub Eng

Нові коментарі

Нова тема   Відповісти
Автор Повідомлення
Anonymous 







2020-12-21 10:57  
Темна Ліга Справедливості: Війна Апоколіпса / Justice League Dark: Apokolips War (2020) Remux 1080p Ukr/Eng | sub Eng

Темна Ліга Справедливості: Війна Апоколіпса / Justice League Dark: Apokolips War (2020) Remux 1080p Ukr/Eng | sub Eng


Жанр: екшн, наукова фантастика
Країна: США



Кінокомпанія: DC Comics
Режисер: Метт Пітерс
Актори: Джеррі О'Коннелл, Таісса Фарміга, Джейсон О`Мара, Розаріо Доусон та інші

Сюжет:
Міжгалактичний тиран Дарксайд виснажив сили Ліги справедливості війною. Тепер сили добра повинні придумати новий план і почати війну з Дарксайд, щоб врятувати Землю.


Тривалість: 01:30:11
Якість: Remux 1080p
Відео:
кодек:
розмір кадру: 1920 х 1080
бітрейт: ~ 14800 Кбіт/с

Аудіо # 1:
мова: українська
переклад: багатоголосий закадровий
кодек: 2.0
бітрейт: 192 кб/с

Аудіо # 2:
мова: англійська
переклад: оригінал
кодек: -HD Master 5.1
бітрейт: 2320 кб/с

Субтитри:
мова: англійська
тип: програмні (м'які)
формат: *.srt
Info
General
Complete name : Justice League Dark Apokolips War (2020) Remux 1080p [ukr, eng] [Hurtom].
Format :
Format version : Version 4
File size : 10.9 GiB
Duration : 1 h 30 min
Overall bit rate mode : Variable
Overall bit rate : 17.3 Mb/s
Movie name : Темна Ліга Справедливості: Війна Апоколіпса / Justice League Dark: Apokolips War (2020)
Encoded date : UTC 2020-12-21 08:32:37
Writing application : v30.1.0 ('Forever And More') 64-bit
Writing library : libebml v1.3.6 + v1.4.9
Cover : Yes
Attachments : cover.jpg

Video
ID : 1
Format : AVC
Format/Info : Advanced Video Codec
Format profile : [email protected]
Format settings : CABAC / 4 Ref Frames
Format settings, CABAC : Yes
Format settings, RefFrames : 4 frames
Codec ID : V_MPEG4/ISO/AVC
Duration : 1 h 30 min
Bit rate mode : Variable
Bit rate : 14.8 Mb/s
Maximum bit rate : 40.0 Mb/s
Width : 1 920 pixels
Height : 1 080 pixels
Display aspect ratio : 16:9
Frame rate mode : Constant
Frame rate : 23.976 (24000/1001) FPS
Color space : YUV
Chroma subsampling : 4:2:0
Bit depth : 8 bits
Scan type : Progressive
Bits/(Pixel*Frame) : 0.297
Stream size : 9.31 GiB (85%)
Language : English
Default : No
Forced : No

Audio #1
ID : 2
Format : AC-3
Format/Info : Audio Coding 3
Commercial name : Dolby Digital
Codec ID : A_AC3
Duration : 1 h 30 min
Bit rate mode : Constant
Bit rate : 192 kb/s
Channel(s) : 2 channels
Channel layout : L R
Sampling rate : 48.0 kHz
Frame rate : 31.250 FPS (1536 SPF)
Bit depth : 16 bits
Compression mode : Lossy
Stream size : 124 MiB (1%)
Title : MVO
Language : Ukrainian
Service kind : Complete Main
Default : Yes
Forced : No

Audio #2
ID : 3
Format : XLL
Format/Info : Digital Theater Systems
Commercial name : -HD Master Audio
Codec ID : A_DTS
Duration : 1 h 30 min
Bit rate mode : Variable
Bit rate : 2 320 kb/s
Channel(s) : 6 channels
Channel layout : C L R Ls Rs LFE
Sampling rate : 48.0 kHz
Frame rate : 93.750 FPS (512 SPF)
Bit depth : 16 bits
Compression mode : Lossless
Stream size : 1.46 GiB (13%)
Title : Original
Language : English
Default : No
Forced : No

Text
ID : 4
Format : UTF-8
Codec ID : S_TEXT/UTF8
Codec ID/Info : UTF-8 Plain Text
Duration : 1 h 24 min
Bit rate : 45 b/s
Count of elements : 1004
Stream size : 28.4 KiB (0%)
Title : English-SRT
Language : English
Default : No
Forced : No

Menu
00:00:00.000 : en:Chapter 01
00:08:30.885 : en:Chapter 02
00:17:35.095 : en:Chapter 03
00:27:06.625 : en:Chapter 04
00:35:31.170 : en:Chapter 05
00:44:35.673 : en:Chapter 06
00:53:16.109 : en:Chapter 07
01:01:53.626 : en:Chapter 08
01:08:14.340 : en:Chapter 09
01:17:38.195 : en:Chapter 10
01:26:55.043 : en:Chapter 11
Скріншоти


Подяка за аудіо: Еneyida.tv
Джерело:
Особиста оцінка: 0 - не дивився


Золотий реліз (завантажене не впливає на рейтинг)
 Трекер:    Зареєстрований   

Завантажити / скачати мультфільм українською



відео для новачків



 Зареєстрований:   2020-12-21 10:57
 Розмір:   10.89 GB 
 Оцінка мультфільму:   8.6/10 (Голосів: 10)
   
Ваш часовий пояс: GMT + 2 Години

Нова тема   Відповісти