Чемпіонат Англії 2020/21 | Ньюкасл Юнайтед - Вест Бромвіч Альбіон | 12 тур | Setanta Sports (12.12.2020) 1080p

Нові коментарі

Нова тема   Відповісти
Останній раз роздавалося misamisk (2021-03-04)
Автор Повідомлення
misamisk 
Поважний учасник


З нами з: 16.10.17
Востаннє: 27.02.21
Повідомлень: 157

2020-12-12 19:25  
Чемпіонат Англії 2020/21 | Ньюкасл Юнайтед - Вест Бромвіч Альбіон | 12 тур | Setanta Sports (12.12.2020) 1080p

Чемпіонат Англії 2020/21 | Ньюкасл Юнайтед - Вест Бромвіч Альбіон | 12 тур | Setanta Sports (12.12.2020) 1080p


Телеканал: Setanta Sports Ukraine
Опис:
Матч відбувся 12 грудня 2020 року у Ньюкаслі на "Сент-Джеймс Парк"

Матч обслуговували:

Рефері: Даррен Інгланд
Асистенти рефері: Адріан Холмс, Джеймс Меінверінг
Четвертий арбітр: Мартін Аткінсон
VAR: Ентоні Тейлор
Асистент VAR: Гарі Безвік


Тривалість: 01:47:42
Якість:
Відео:
кодек:
розмір кадру: 1920 x 1080
бітрейт: ~3500 кб/с

Аудіо:
мова: українська
переклад: одноголосий закадровий | Олександр Яременко
кодек: 2.0
бітрейт: 129 кб/с
Стартові склади
Info
General
Unique ID : 196479605472673726824420955422241185235 (0x93D09876E3E77645F830F9B14D95DDD3)
Complete name : EPL.2020-21.Matchday.12.Newcastle.United-West.Bromwich.Albion.12.12.2020..
Format :
Format version : Version 4
File size : 2.73 GiB
Duration : 1 h 47 min
Overall bit rate : 3 626 kb/s
Movie name : English Premier League 2020/21. Matchday 12. Newcastle United - West Bromwich Albion
Encoded date : UTC 2020-12-12 17:11:33
Writing application : v24.0.0 ('Beyond The Pale') 64-bit
Writing library : libebml v1.3.6 + v1.4.9

Video
ID : 2
Format : AVC
Format/Info : Advanced Video Codec
Format profile : [email protected]
Format settings : 2 Ref Frames
Format settings, CABAC : No
Format settings, Reference frames : 2 frames
Format settings, GOP : M=3, N=50
Codec ID : V_MPEG4/ISO/AVC
Duration : 1 h 47 min
Bit rate : 3 495 kb/s
Width : 1 920 pixels
Height : 1 080 pixels
Display aspect ratio : 16:9
Frame rate mode : Constant
Frame rate : 25.000 FPS
Color space : YUV
Chroma subsampling : 4:2:0
Bit depth : 8 bits
Scan type : Progressive
Bits/(Pixel*Frame) : 0.067
Stream size : 2.63 GiB (96%)
Title : English Premier League 2020/21. Matchday 12. Newcastle United - West Bromwich Albion
Language : English
Default : Yes
Forced : No

Audio
ID : 1
Format : LC
Format/Info : Advanced Audio Codec Low Complexity
Codec ID : A_AAC-2
Duration : 1 h 47 min
Bit rate : 129 kb/s
Channel(s) : 2 channels
Channel layout : L R
Sampling rate : 48.0 kHz
Frame rate : 46.875 FPS (1024 SPF)
Compression mode : Lossy
Delay relative to video : -27 ms
Stream size : 99.2 MiB (4%)
Title : Commentaries by Olexandr Yaremenko
Language : Ukrainian
Default : Yes
Forced : No
Скріншоти


Золотий реліз (завантажене не впливає на рейтинг)
 Трекер:    Зареєстрований   

Завантажити / скачати торрент



відео для новачків



 Зареєстрований:   2020-12-12 19:25
 Розмір:   2.73 GB 
 Оцінка:   9.5/10 (Голосів: 2)
   
misamisk 
Поважний учасник


З нами з: 16.10.17
Востаннє: 27.02.21
Повідомлень: 157

2020-12-12 20:05  
Біатлон буде після Манчестерського дербі, орієнтовно біля 21:30

Додано через 33 хвилини 21 секунду:

UPD: На жаль у мене трапився обрив зв'язку посеред матчу, запис перервався на тридцятій хвилині. Іду публікувати біатлон...

Ваш часовий пояс: GMT + 2 Години

Нова тема   Відповісти