Хроніки Різдва 2 / The Christmas Chronicles 2 (2020) 1080p Ukr/Eng | Sub Ukr/Eng

Нові коментарі

Нова тема   Відповісти
Автор Повідомлення
killer2015 
VIP


З нами з: 30.01.15
Востаннє: 23.01.21
Повідомлень: 309

2020-12-12 17:21  
Хроніки Різдва 2 / The Christmas Chronicles 2 (2020) 1080p Ukr/Eng | Sub Ukr/Eng

Хроніки Різдва 2 / The Christmas Chronicles 2 (2020) 1080p Ukr/Eng | Sub Ukr/Eng


Жанр: комедія, пригоди, сімейний, фентезі
Країна: Канада



Кінокомпанія: Netflix
Режисер: Кріс Коламбус
Актори: Курт Рассел, Ґолді Гоун, Джуда Льюїс, Дербі Кемп, Кімберлі Вільямс-Пейслі, Джуліан Деннісон, Тайріз Гібсон, Джазір Бруно

Сюжет:
Кейт виросла і стала цинічним підлітком, але тим не менше їй доведеться об'єднатися з Сантою, щоб зупинити таємничого чарівника на ім'я Белснікель, який задумав відібрати у людства Різдво.


Тривалість: 01:52:01
Якість: 1080p
Відео:
кодек:
розмір кадру: 1920x1038
бітрейт: 6 816 кб/с

Аудіо#1:
мова: українська
переклад: багатоголосий закадровий
кодек: 5.1
бітрейт: 384 кб/с

Аудіо#2:
мова: англійська
переклад: оригінал
кодек: 5.1
бітрейт: 640 кб/с

Субтитри (Forced):
мова: українська, англійська
тип: вбудовані (жорсткі)
Info

General
Unique ID : 146162601276332416929202200459775569904 (0x6DF5E49F3CA497E1B7FAA3F6943BEFF0)
Complete name : G:\Фільми\The.Christmas.Chronicles.2.2020..1080p.ukr.5.1.
Format :
Format version : Version 4
File size : 6.26 GiB
Duration : 1 h 52 min
Overall bit rate : 8 000 kb/s
Writing application : Lavf58.20.100
Writing library : Lavf58.20.100
ErrorDetectionType : Per level 1

Video
ID : 1
Format : AVC
Format/Info : Advanced Video Codec
Format profile : [email protected]
Format settings : CABAC / 1 Ref Frames
Format settings, CABAC : Yes
Format settings, Reference frames : 1 frame
Format settings, GOP : M=1, N=30
Codec ID : V_MPEG4/ISO/AVC
Duration : 1 h 52 min
Bit rate : 6 816 kb/s
Width : 1 920 pixels
Height : 1 038 pixels
Display aspect ratio : 1.85:1
Frame rate mode : Constant
Frame rate : 24.000 FPS
Color space : YUV
Chroma subsampling : 4:2:0
Bit depth : 8 bits
Scan type : Progressive
Bits/(Pixel*Frame) : 0.143
Stream size : 5.33 GiB (85%)
Default : Yes
Forced : No

Audio #1
ID : 2
Format : AC-3
Format/Info : Audio Coding 3
Commercial name : Dolby Digital
Codec ID : A_AC3
Duration : 1 h 52 min
Bit rate mode : Constant
Bit rate : 384 kb/s
Channel(s) : 6 channels
Channel layout : L R C LFE Ls Rs
Sampling rate : 48.0 kHz
Frame rate : 31.250 FPS (1536 SPF)
Compression mode : Lossy
Delay relative to video : 12 ms
Stream size : 308 MiB (5%)
Language : Ukrainian
Service kind : Complete Main
Default : Yes
Forced : No

Audio #2
ID : 3
Format : AC-3
Format/Info : Audio Coding 3
Commercial name : Dolby Digital
Codec ID : A_AC3
Duration : 1 h 52 min
Bit rate mode : Constant
Bit rate : 640 kb/s
Channel(s) : 6 channels
Channel layout : L R C LFE Ls Rs
Sampling rate : 48.0 kHz
Frame rate : 31.250 FPS (1536 SPF)
Compression mode : Lossy
Delay relative to video : 500 ms
Stream size : 513 MiB (8%)
Service kind : Complete Main
Default : Yes
Forced : No
Скріншоти




Джерело:
Особиста оцінка: 10 - без зайвих вагань рекомендую всім!


Авторський реліз (завантажувати можна без реєстрації)
 Трекер:    Зареєстрований   

Завантажити / скачати фільм українською



відео для новачків



 Зареєстрований:   2020-12-12 17:21
 Розмір:   6.26 GB 
 Оцінка фільму:   9.4/10 (Голосів: 25)
   
Інші релізи
killer2015 
VIP


З нами з: 30.01.15
Востаннє: 23.01.21
Повідомлень: 309

2020-12-12 17:22  
Логотип шдрізки видалено. Приємного перегляду!
(код аймобу чомусь не діє. Видає помилку)

fl_fl 
Відео Гуртом - фільмокрай
Відео Гуртом - фільмокрай


З нами з: 26.05.09
Востаннє: 23.01.21
Повідомлень: 3364

2020-12-12 17:27  
Назва інша у перекладі.
antik_2008 
Релізер і модератор відео


З нами з: 20.10.08
Востаннє: 22.01.21
Повідомлень: 4627

2020-12-12 19:25  
killer2015
у вас медіа інфо інше
General
Complete name : The.Christmas.Chronicles.2.2020..1080p.ukr.5.1.
Format :
Format version : Version 4
File size : 6.26 GiB
Duration : 1 h 52 min
Overall bit rate : 8 000 kb/s
Writing application : Lavf58.20.100
Writing library : Lavf58.20.100
ErrorDetectionType : Per level 1

Video
ID : 1
Format : AVC
Format/Info : Advanced Video Codec
Format profile : [email protected]
Format settings : CABAC / 1 Ref Frames
Format settings, CABAC : Yes
Format settings, RefFrames : 1 frame
Format settings, GOP : M=1, N=30
Codec ID : V_MPEG4/ISO/AVC
Duration : 1 h 52 min
Bit rate : 6 816 kb/s
Width : 1 920 pixels
Height : 1 038 pixels
Display aspect ratio : 1.85:1
Frame rate mode : Constant
Frame rate : 24.000 FPS
Color space : YUV
Chroma subsampling : 4:2:0
Bit depth : 8 bits
Scan type : Progressive
Bits/(Pixel*Frame) : 0.143
Stream size : 5.33 GiB (85%)
Default : Yes
Forced : No

Audio #1
ID : 2
Format : AC-3
Format/Info : Audio Coding 3
Commercial name : Dolby Digital
Codec ID : A_AC3
Duration : 1 h 52 min
Bit rate mode : Constant
Bit rate : 384 kb/s
Channel(s) : 6 channels
Channel layout : L R C LFE Ls Rs
Sampling rate : 48.0 kHz
Frame rate : 31.250 FPS (1536 SPF)
Bit depth : 16 bits
Compression mode : Lossy
Delay relative to video : 12 ms
Stream size : 308 MiB (5%)
Language : Ukrainian
Service kind : Complete Main
Default : Yes
Forced : No

Audio #2
ID : 3
Format : AC-3
Format/Info : Audio Coding 3
Commercial name : Dolby Digital
Codec ID : A_AC3
Duration : 1 h 52 min
Bit rate mode : Constant
Bit rate : 640 kb/s
Channel(s) : 6 channels
Channel layout : L R C LFE Ls Rs
Sampling rate : 48.0 kHz
Frame rate : 31.250 FPS (1536 SPF)
Bit depth : 16 bits
Compression mode : Lossy
Delay relative to video : 500 ms
Stream size : 513 MiB (8%)
Service kind : Complete Main
Default : Yes
Forced : No
сабів не бачу

а тут були
General
Unique ID : 13921655502223779375226764129585052362 (0xA79369C2FC1B1A72FA95A9ED313BACA)
Complete name : G:\Фільми\The.Christmas.Chronicles.2.2020..1080p.ukr.5.1.HDREZKA.STUDIO.
Format :
Format version : Version 4
File size : 6.26 GiB
Duration : 1 h 52 min
Overall bit rate : 7 987 kb/s
Encoded date : UTC 2020-12-07 16:21:48
Writing application : v45.0.0 ('Heaven in Pennies') 64-bit
Writing library : libebml v1.3.10 + v1.5.2

Video
ID : 1
Format : AVC
Format/Info : Advanced Video Codec
Format profile : [email protected]
Format settings : CABAC / 1 Ref Frames
Format settings, CABAC : Yes
Format settings, Reference frames : 1 frame
Format settings, GOP : M=1, N=30
Codec ID : V_MPEG4/ISO/AVC
Duration : 1 h 52 min
Bit rate : 6 805 kb/s
Width : 1 920 pixels
Height : 1 038 pixels
Display aspect ratio : 1.85:1
Frame rate mode : Constant
Frame rate : 24.000 FPS
Color space : YUV
Chroma subsampling : 4:2:0
Bit depth : 8 bits
Scan type : Progressive
Bits/(Pixel*Frame) : 0.142
Stream size : 5.33 GiB (85%)
Language : English
Default : Yes
Forced : No

Audio #1
ID : 2
Format : AC-3
Format/Info : Audio Coding 3
Commercial name : Dolby Digital
Codec ID : A_AC3
Duration : 1 h 52 min
Bit rate mode : Constant
Bit rate : 384 kb/s
Channel(s) : 6 channels
Channel layout : L R C LFE Ls Rs
Sampling rate : 48.0 kHz
Frame rate : 31.250 FPS (1536 SPF)
Compression mode : Lossy
Stream size : 308 MiB (5%)
Language : Ukrainian
Service kind : Complete Main
Default : Yes
Forced : No

Audio #2
ID : 3
Format : AC-3
Format/Info : Audio Coding 3
Commercial name : Dolby Digital
Codec ID : A_AC3
Duration : 1 h 52 min
Bit rate mode : Constant
Bit rate : 640 kb/s
Channel(s) : 6 channels
Channel layout : L R C LFE Ls Rs
Sampling rate : 48.0 kHz
Frame rate : 31.250 FPS (1536 SPF)
Compression mode : Lossy
Delay relative to video : 13 s 0 ms
Stream size : 514 MiB (8%)
Language : English
Service kind : Complete Main
Default : No
Forced : No

Text #1
ID : 4
Format : UTF-8
Codec ID : S_TEXT/UTF8
Codec ID/Info : UTF-8 Plain Text
Title : TEXT ONLY
Language : Ukrainian
Default : No
Forced : No

Text #2
ID : 5
Format : UTF-8
Codec ID : S_TEXT/UTF8
Codec ID/Info : UTF-8 Plain Text
Language : English
Default : No
Forced : No

killer2015 
VIP


З нами з: 30.01.15
Востаннє: 23.01.21
Повідомлень: 309

2020-12-12 21:03  
antik_2008

Замінив. Дякую!

toloka_alex_2013 
Новенький


З нами з: 06.12.13
Востаннє: 23.01.21
Повідомлень: 23

2020-12-13 12:02  
Виправте посилання на IMDb
ktw14 
Поважний учасник


З нами з: 24.03.11
Востаннє: 22.01.21
Повідомлень: 183

2020-12-20 19:57  
Дякую за реліз. Якраз до Різдва супер!
ssTAss 
Модератор музики


З нами з: 05.07.08
Востаннє: 23.01.21
Повідомлень: 17295

2020-12-25 22:37  
killer2015 написано:

який це веб дл, якщо
killer2015 написано:

Субтитри (Forced):
мова: українська, англійська
тип: вбудовані (жорсткі)

нетфлікс врізає укр саби?
це ріп, а могли б взяти нормальний веб дл і додати м'які форсовані саби, тоді і відео б було оригінальне, а не перекодоване

Морж 
Свій


З нами з: 23.01.09
Востаннє: 22.01.21
Повідомлень: 79

2021-01-03 15:24  
дякую!

до речі, ось правильне посилання на imdb — https://www.imdb.com/title/tt11057644/
(в кінці дві четвірки, а у вас одна)

zlob1234 
Новенький


З нами з: 05.09.19
Востаннє: 21.01.21
Повідомлень: 11

2021-01-17 10:21  
Щось не так з роздачею:
The.Christmas.Chronicles.2.2020..1080p об'єм 6.25ГБ
Наче має бути тека з файлом?

Ваш часовий пояс: GMT + 2 Години

Нова тема   Відповісти