Чемпіонат Англії 2020/21 | Прев'ю 12 туру | Setanta Sports | 1080p

Нові коментарі

Нова тема   Відповісти
Останній раз роздавалося misamisk (2021-02-19)
Автор Повідомлення
misamisk 
Поважний учасник


З нами з: 16.10.17
Востаннє: 27.02.21
Повідомлень: 157

2020-12-12 15:13  
Чемпіонат Англії 2020/21 | Прев'ю 12 туру | Setanta Sports | 1080p

Чемпіонат Англії 2020/21 | Прев'ю 12 туру | Setanta Sports | 1080p


Телеканал: Setanta Sports Ukraine
Опис:
Прев'ю 12 туру Англійської Прем'єр-Ліги із представленням усіх матчів та інформацією про стан команд перед вікендом.


Тривалість: 25:37
Якість:
Відео:
кодек:
розмір кадру: 1920 x 1080
бітрейт: ~3500 кб/с

Аудіо:
мова: українська
переклад: одноголосий закадровий | Олександр Яременко
кодек: 2.0
бітрейт: 129 кб/с
Info
General
Unique ID : 158085677682138964468890283394796187886 (0x76EE31ACC7EC347189A3F698479170EE)
Complete name : EPL.2020-21.Matchday.12.Preview.
Format :
Format version : Version 4
File size : 664 MiB
Duration : 25 min 37 s
Overall bit rate : 3 624 kb/s
Encoded date : UTC 2020-12-12 12:59:11
Writing application : v24.0.0 ('Beyond The Pale') 64-bit
Writing library : libebml v1.3.6 + v1.4.9

Video
ID : 2
Format : AVC
Format/Info : Advanced Video Codec
Format profile : [email protected]
Format settings : 2 Ref Frames
Format settings, CABAC : No
Format settings, Reference frames : 2 frames
Format settings, GOP : M=3, N=50
Codec ID : V_MPEG4/ISO/AVC
Duration : 25 min 37 s
Bit rate : 3 493 kb/s
Width : 1 920 pixels
Height : 1 080 pixels
Display aspect ratio : 16:9
Frame rate mode : Constant
Frame rate : 25.000 FPS
Color space : YUV
Chroma subsampling : 4:2:0
Bit depth : 8 bits
Scan type : Progressive
Bits/(Pixel*Frame) : 0.067
Stream size : 640 MiB (96%)
Title : English Premier League 2020/21. Matchday 12 Preview
Language : English
Default : Yes
Forced : No

Audio
ID : 1
Format : LC
Format/Info : Advanced Audio Codec Low Complexity
Codec ID : A_AAC-2
Duration : 25 min 37 s
Bit rate : 129 kb/s
Channel(s) : 2 channels
Channel layout : L R
Sampling rate : 48.0 kHz
Frame rate : 46.875 FPS (1024 SPF)
Compression mode : Lossy
Delay relative to video : -32 ms
Stream size : 23.6 MiB (4%)
Title : Commentaries by Olexandr Yaremenko
Language : Ukrainian
Default : Yes
Forced : No
Скріншоти


Срібний реліз (на рейтинг впливає 50% завантаженого)
 Трекер:    Зареєстрований   

Завантажити / скачати торрент



відео для новачків



 Зареєстрований:   2020-12-12 15:13
 Розмір:   664 MB 
 Оцінка:   9.7/10 (Голосів: 3)
   
Ваш часовий пояс: GMT + 2 Години

Нова тема   Відповісти