Ліга Європи UEFA. Група G. 6 тур. Брага (Португалія) - Зоря Луганськ (Україна) (08.12.2020) 720p 50fps

Нові коментарі

Нова тема   Відповісти
Останній раз роздавалося KashubaVova (2021-01-07)
Автор Повідомлення
misamisk 
Поважний учасник


З нами з: 16.10.17
Востаннє: 27.02.21
Повідомлень: 157

2020-12-12 11:09  
Ліга Європи UEFA. Група G. 6 тур. Брага (Португалія) - Зоря Луганськ (Україна) (08.12.2020) 720p 50fps

Ліга Європи UEFA. Група G. 6 тур. Брага (Португалія) - Зоря Луганськ (Україна) (08.12.2020) 720p 50fps


Телеканал: Футбол 2 HD
Опис:
Матч відбувся 10 жовтня 2020 року у Бразі на Муніципальному стадіоні.

Матч обслуговували:

Рефері: Даніель Стефанскі (Польща)
Асистенти рефері: Давід Ігор Голіс (Польща), Кшиштоф Мирмус (Польща)
Четвертий арбітр: Даміан Сильвестшак (Польща)

Коментатор: Андрій Столярчук


Тривалість: 01:47:29
Якість:
Відео:
кодек:
розмір кадру: 1280 x 720
бітрейт: ~3000 кб/с

Аудіо:
мова: українська
переклад: одноголосий закадровий
кодек: 2.0
бітрейт: 128 кб/с
Info
General
Unique ID : 153993993401458363801063778330972075375 (0x73DA2A1088493B2E614E3244F8B9356F)
Complete name : Braga vs Zorya.
Format :
Format version : Version 4
File size : 2.48 GiB
Duration : 1 h 47 min
Overall bit rate : 3 305 kb/s
Writing application : VideoReDo (Lavf58.29.100)
Writing library : VideoReDo (Lavf58.29.100)
ErrorDetectionType : Per level 1

Video
ID : 1
Format : AVC
Format/Info : Advanced Video Codec
Format profile : [email protected]
Format settings : CABAC / 4 Ref Frames
Format settings, CABAC : Yes
Format settings, Reference frames : 4 frames
Codec ID : V_MPEG4/ISO/AVC
Duration : 1 h 47 min
Bit rate : 3 111 kb/s
Width : 1 280 pixels
Height : 720 pixels
Display aspect ratio : 16:9
Frame rate mode : Constant
Frame rate : 50.000 FPS
Color space : YUV
Chroma subsampling : 4:2:0
Bit depth : 8 bits
Scan type : Progressive
Bits/(Pixel*Frame) : 0.068
Stream size : 2.34 GiB (94%)
Default : No
Forced : No

Audio
ID : 2
Format : AC-3
Format/Info : Audio Coding 3
Commercial name : Dolby Digital
Codec ID : A_AC3
Duration : 1 h 47 min
Bit rate mode : Constant
Bit rate : 128 kb/s
Channel(s) : 2 channels
Channel layout : L R
Sampling rate : 48.0 kHz
Frame rate : 31.250 FPS (1536 SPF)
Compression mode : Lossy
Stream size : 98.4 MiB (4%)
Language : Ukrainian
Service kind : Complete Main
Default : Yes
Forced : No

Menu
00:00:00.000 : :Chapter 1
00:54:23.360 : :Chapter 2
Стартові склади
Скріншоти
Подяка за допомогу у створенні релізу : rgfootball


Бронзовий реліз (на рейтинг впливає 75% завантаженого)
 Трекер:    Зареєстрований   

Завантажити / скачати торрент



відео для новачків



 Зареєстрований:   2020-12-12 11:09
 Розмір:   2.48 GB 
 Оцінка:   9/10 (Голосів: 1)
   
staf777 
Відео Гуртом - підтримка та поширення
Відео Гуртом - підтримка та поширення


З нами з: 16.11.16
Востаннє: 04.03.21
Повідомлень: 5083

2020-12-12 11:25  
Вище голови не пригнеш

Ваш часовий пояс: GMT + 2 Години

Нова тема   Відповісти