Їх поміняли місцями / Помінятися місцями / Trading Places (1983) 1080p H.265 3xUkr/Eng | Sub Eng

Нові коментарі

Нова тема   Відповісти
Автор Повідомлення
Anonymous 







2020-12-12 00:51  
Їх поміняли місцями / Помінятися місцями / Trading Places (1983) 1080p H.265 3xUkr/Eng | Sub Eng

Їх поміняли місцями / Помінятися місцями / Trading Places (1983) 1080p H.265 3xUkr/Eng | Sub Eng


Жанр: комедія
Країна: США
Кінокомпанія: Cinema Group Ventures, Paramount Pictures
Режисер: Джон Лендіс / John Landis
Актори: Ден Айкройд / Dan Aykroyd, Едді Мерфі / Eddie Murphy, Джеймі Лі Кертіс / Jamie Lee Curtis, Ральф Белламі / Ralph Bellamy, Дон Амеш / Don Ameche, Денхолм Елліотт / Denholm Elliott, Крістін Холбі / Kristin Holby, Пол Ґлісон / Paul Gleason, Джеймс Белуші / James Belushi

Сюжет:
Життя респектабельного бізнесмена Луїса Вінтропа Третього, керівника багатющої компанії з Волл-Стрит, круто міняється після того, як його боси, брати Дьюк, укладають незвичайне парі. Один з братів вважає, що управляти компанією може хто завгодно, навіть найзапекліший і неосвіченіший пройдисвіт.

Поставивши на кон доллар, брати знаходять для свого експерименту вуличного шахрая Біллі Рея Валентайна, якому і пропонують очолити компанію замість Вінтропа. Ексцентрична парочка Дьюков і не підозрює, що, помінявши місцями пройдисвіта і бізнесмена, вони ризикують значно більше, ніж могли б собі уявити.

Тривалість: 01:56:22
Якість:

Відео:
кодек: H.265 (HEVC)
розмір кадру: 1918 x 1080
бітрейт: 9 162 кб/с
бітова глибина: 10 біт

Увага! Перед завантаженням переконайтесь, що ваш пристрій відтворення (та/або ПЗ) підтримує H.265 (HEVC)

Аудіо # 1:
мова: українська
озвучення: багатоголосе закадрове
кодек: AC-3 2.0
бітрейт: 192 кб/с

Аудіо # 2:
мова: українська
озвучення: багатоголосе закадрове
кодек: AC-3 2.0
бітрейт: 192 кб/с

Аудіо # 3:
мова: українська
озвучення: багатоголосе закадрове
кодек: AC-3 2.0
бітрейт: 192 кб/с

Аудіо # 4:
мова: англійська
озвучення: оригінал
кодек: AC-3 5.1
бітрейт: 640 кб/с

Субтитри # 1: (Full)
мова: англійська
тип: програмні (м'які)
формат: *.srt


Інформація про файл
Код:
General
Unique ID                                : 299310628929218969970993798194564846052 (0xE12D215ADEB7503DD7AC3CB33BFE51E4)
Complete name                            : Trading Places (1983) 1080p H.265 [3xUKR_ENG] [Hurtom].
Format                                   :
Format version                           : Version 4
File size                                : 8.44 GiB
Duration                                 : 1 h 56 min
Overall bit rate                         : 10.4 Mb/s
Movie name                               : Їх поміняли місцями / Помінятися місцями / Trading Places (1983)
Encoded date                             : UTC 2021-01-09 09:58:48
Writing application                      : v20.0.0 ('I Am The Sun') 64-bit
Writing library                          : libebml v1.3.5 + v1.4.8
Cover                                    : Yes
Attachments                              : Cover.jpg

Video
ID                                       : 1
Format                                   : HEVC
Format/Info                              : High Efficiency Video Coding
Format profile                           : Main [email protected]@High
Codec ID                                 : V_MPEGH/ISO/HEVC
Duration                                 : 1 h 56 min
Bit rate                                 : 9 161 kb/s
Width                                    : 1 918 pixels
Height                                   : 1 080 pixels
Display aspect ratio                     : 16:9
Frame rate mode                          : Constant
Frame rate                               : 23.976 (23976/1000) FPS
Original frame rate                      : 23.976 (24000/1001) FPS
Color space                              : YUV
Chroma subsampling                       : 4:2:0
Bit depth                                : 10 bits
Bits/(Pixel*Frame)                       : 0.184
Stream size                              : 7.45 GiB (88%)
Title                                    : Їх поміняли місцями / Помінятися місцями / Trading Places (1983)
Writing library                          : x265 3.4+10-g25b2c0703:[Windows][MSVC 1927][64 bit] 10bit
Encoding settings                        : cpuid=1111039 / frame-threads=4 / numa-pools=16 / wpp / no-pmode / no-pme / no-psnr / no-ssim / log-level=2 / input-csp=1 / input-res=1918x1080 / interlace=0 / total-frames=167424 / level-idc=41 / high-tier=1 / uhd-bd=0 / ref=5 / no-allow-non-conformance / no-repeat-headers / annexb / no-aud / no-hrd / info / hash=0 / no-temporal-layers / open-gop / min-keyint=23 / keyint=240 / gop-lookahead=0 / bframes=12 / b-adapt=2 / b-pyramid / bframe-bias=0 / rc-lookahead=60 / lookahead-slices=4 / scenecut=40 / hist-scenecut=0 / radl=0 / no-splice / no-intra-refresh / ctu=32 / min-cu-size=8 / rect / amp / max-tu-size=32 / tu-inter-depth=4 / tu-intra-depth=4 / limit-tu=1 / rdoq-level=2 / dynamic-rd=0.00 / no-ssim-rd / signhide / no-tskip / nr-intra=0 / nr-inter=0 / no-constrained-intra / no-strong-intra-smoothing / max-merge=4 / limit-refs=2 / limit-modes / me=3 / subme=7 / merange=57 / temporal-mvp / no-frame-dup / no-hme / weightp / weightb / no-analyze-src-pics / deblock=-3:-3 / no-sao / no-sao-non-deblock / rd=6 / selective-sao=0 / no-early-skip / no-rskip / no-fast-intra / no-tskip-fast / no-cu-lossless / no-b-intra / no-splitrd-skip / rdpenalty=0 / psy-rd=2.00 / psy-rdoq=1.00 / no-rd-refine / no-lossless / cbqpoffs=0 / crqpoffs=0 / rc=crf / crf=20.0 / qcomp=0.65 / qpstep=4 / stats-write=0 / stats-read=0 / vbv-maxrate=50000 / vbv-bufsize=50000 / vbv-init=0.9 / crf-max=0.0 / crf-min=0.0 / ipratio=1.40 / pbratio=1.30 / aq-mode=1 / aq-strength=1.00 / no-cutree / zone-count=0 / no-strict-cbr / qg-size=32 / no-rc-grain / qpmax=69 / qpmin=0 / no-const-vbv / sar=1 / overscan=0 / videoformat=5 / range=0 / colorprim=1 / transfer=1 / colormatrix=1 / chromaloc=0 / display-window=0 / cll=0,0 / min-luma=0 / max-luma=1023 / log2-max-poc-lsb=8 / vui-timing-info / vui-hrd-info / slices=1 / no-opt-qp-pps / no-opt-ref-list-length-pps / no-multi-pass-opt-rps / scenecut-bias=0.05 / hist-threshold=0.01 / no-opt-cu-delta-qp / no-aq-motion / no-hdr10 / no-hdr10-opt / no-dhdr10-opt / no-idr-recovery-sei / analysis-reuse-level=0 / analysis-save-reuse-level=0 / analysis-load-reuse-level=0 / scale-factor=0 / refine-intra=0 / refine-inter=0 / refine-mv=1 / refine-ctu-distortion=0 / no-limit-sao / ctu-info=0 / no-lowpass-dct / refine-analysis-type=0 / copy-pic=1 / max-ausize-factor=1.0 / no-dynamic-refine / no-single-sei / no-hevc-aq / no-svt / no-field / qp-adaptation-range=1.00 / no-scenecut-aware-qpconformance-window-offsets / right=0 / bottom=0 / decoder-max-rate=0
Default                                  : Yes
Forced                                   : No
Color range                              : Limited
Color primaries                          : BT.709
Transfer characteristics                 : BT.709
Matrix coefficients                      : BT.709

Audio #1
ID                                       : 2
Format                                   : AC-3
Format/Info                              : Audio Coding 3
Commercial name                          : Dolby Digital
Codec ID                                 : A_AC3
Duration                                 : 1 h 56 min
Bit rate mode                            : Constant
Bit rate                                 : 192 kb/s
Channel(s)                               : 2 channels
Channel layout                           : L R
Sampling rate                            : 48.0 kHz
Frame rate                               : 31.250 FPS (1536 SPF)
Compression mode                         : Lossy
Stream size                              : 160 MiB (2%)
Title                                    : AC-3 / 2.0 Ch / 192 kbps / MVO / K1
Language                                 : Ukrainian
Service kind                             : Complete Main
Default                                  : Yes
Forced                                   : Yes

Audio #2
ID                                       : 3
Format                                   : AC-3
Format/Info                              : Audio Coding 3
Commercial name                          : Dolby Digital
Codec ID                                 : A_AC3
Duration                                 : 1 h 56 min
Bit rate mode                            : Constant
Bit rate                                 : 192 kb/s
Channel(s)                               : 2 channels
Channel layout                           : L R
Sampling rate                            : 48.0 kHz
Frame rate                               : 31.250 FPS (1536 SPF)
Compression mode                         : Lossy
Stream size                              : 160 MiB (2%)
Title                                    : AC-3 / 2.0 Ch / 192 kbps / MVO / ICTV / Студія "ТВ+"
Language                                 : Ukrainian
Service kind                             : Complete Main
Default                                  : No
Forced                                   : No

Audio #3
ID                                       : 4
Format                                   : AC-3
Format/Info                              : Audio Coding 3
Commercial name                          : Dolby Digital
Codec ID                                 : A_AC3
Duration                                 : 1 h 56 min
Bit rate mode                            : Constant
Bit rate                                 : 192 kb/s
Channel(s)                               : 2 channels
Channel layout                           : L R
Sampling rate                            : 48.0 kHz
Frame rate                               : 31.250 FPS (1536 SPF)
Compression mode                         : Lossy
Stream size                              : 160 MiB (2%)
Title                                    : AC-3 / 2.0 Ch / 192 kbps / MVO / 1+1
Language                                 : Ukrainian
Service kind                             : Complete Main
Default                                  : No
Forced                                   : No

Audio #4
ID                                       : 5
Format                                   : AC-3
Format/Info                              : Audio Coding 3
Commercial name                          : Dolby Digital
Codec ID                                 : A_AC3
Duration                                 : 1 h 56 min
Bit rate mode                            : Constant
Bit rate                                 : 640 kb/s
Channel(s)                               : 6 channels
Channel layout                           : L R C LFE Ls Rs
Sampling rate                            : 48.0 kHz
Frame rate                               : 31.250 FPS (1536 SPF)
Compression mode                         : Lossy
Stream size                              : 533 MiB (6%)
Title                                    : AC-3 / 5.1 Ch / 640 kbps / Original
Language                                 : English
Service kind                             : Complete Main
Default                                  : No
Forced                                   : No

Text
ID                                       : 6
Format                                   : UTF-8
Codec ID                                 : S_TEXT/UTF8
Codec ID/Info                            : UTF-8 Plain Text
Duration                                 : 1 h 48 min
Bit rate                                 : 64 b/s
Count of elements                        : 1295
Stream size                              : 50.9 KiB (0%)
Title                                    : Full
Language                                 : English
Default                                  : No
Forced                                   : No

Menu
00:00:00.000                             : en:Philadelphia
00:03:42.013                             : en:Pork Bellies
00:06:28.846                             : en:Duke & Duke
00:16:00.084                             : en:Is There a Problem, Officers?
00:18:41.078                             : en:The Usual Wager
00:23:11.306                             : en:Whiskey, All You Want
00:28:51.604                             : en:Billy Ray's Stuff
00:32:44.671                             : en:Thief Among Us
00:39:16.937                             : en:It Was a Stone Groove, My Man
00:45:14.086                             : en:Heroin Dealer
00:53:56.399                             : en:A Couple of Bookies
00:57:49.299                             : en:Ophelia's Flat
01:01:00.615                             : en:Mr. Valentine Sets the Price
01:06:12.885                             : en:Fifty Bucks
01:11:49.805                             : en:Christmas Eve
01:23:24.165                             : en:A Most Absurd Nightmare
01:27:10.058                             : en:Merry New Year
01:38:48.839                             : en:Fcoj
01:48:45.727                             : en:Turn the Machines Back On
01:51:03.657                             : en:Looking Good
Лог кодування
Код:
x265 [info]: frame I: Avg QP:18.59 kb/s
x265 [info]: frame P: Avg QP:19.98 kb/s
x265 [info]: frame B: Avg QP:21.86 kb/s
Світлини




Джерело: & &
Особиста оцінка: 0 - не дивився


Золотий реліз (завантажене не впливає на рейтинг)
 Трекер:    Зареєстрований   

Завантажити / скачати фільм українською



відео для новачків



 Зареєстрований:   2021-01-09 12:02
 Розмір:   8.44 GB 
 Оцінка фільму:   9.6/10 (Голосів: 5)
   
Anonymous 







2021-01-09 12:03  
Додано доріжку від 
Ваш часовий пояс: GMT + 2 Години

Нова тема   Відповісти