Мулан / Mulan (2020) 1080p 2xUkr/Eng | Sub Ukr/Eng

Нові коментарі

Нова тема   Відповісти
Автор Повідомлення
Anonymous 







2020-12-11 14:12  
Мулан / Mulan (2020) 1080p 2xUkr/Eng | Sub Ukr/Eng



Жанр: драма, пригоди, сімейний, фентезі, екшн
Країна: США, Канада, Гонконг



Кінокомпанія: Walt Disney Pictures
Режисер: Нікі Каро
Актори: Іфей Лю, Донні Єн, Ґун Лі, Джет Лі, Джейсон Скотт Лі, Йосон Ан, Ма Ці, Розалінд Чао, Рон Юань, Джан Ю

Сюжет:
Для Китайської імперії настали темні часи. Із півночі на країну наступає грізне військо нещадних загарбників, які жадають крові невинних людей. Імператор видав указ, що кожна сім'я повинна дати одного чоловіка для захисту країни. Хуа завжди був хоробрим воїном, але зараз на старості років, його долають хвороби. Але він єдиний чоловік у своїй родині, Бог нагородив його двома дочками. Мулан, старша з них, завжди відрізнялася від своїх одноліток. Рішуча, смілива та спритна дівчина не може відпустити батька на вірну смерть – вона сама піде до війська, прикинувшись хлопцем. Це буде складний шлях для дівчини, який зробить її одним із найбільших воїнів у історії Китаю.


Тривалість: 01:55:11
Якість: 1080p
Відео:
кодек:
розмір кадру: 1920 x 804
бітрейт: ~13500 кб/с

Аудіо # 1:
мова: українська
переклад: професійний дубльований | iTunes
кодек: 5.1
бітрейт: 384 кб/с

Аудіо # 2:
мова: українська
переклад: одноголосий закадровий | В одне рило
кодек: 2.0
бітрейт: 192 кб/с

Аудіо # 3:
мова: англійська
переклад: оригінал
кодек: 5.1
бітрейт: 640 кб/с

Субтитри # 1 (Forced):
мова: українська
тип: пререндерні
формат: *.srt

Субтитри # 2 (Full):
мова: українська
тип: пререндерні
формат: *.srt
переклад: машинний редагований переклад killer2015

Субтитри # 3 (Full):
мова: англійська
тип: пререндерні
формат: *.srt

Субтитри # 4 (SDH):
мова: англійська
тип: пререндерні
формат: *.srt
Info
Код:

General
Complete name                            : Mulan (2020) 1080p [Ukr_Eng] [Hurtom].
Format                                   :
Format version                           : Version 4
File size                                : 11.8 GiB
Duration                                 : 1 h 55 min
Overall bit rate                         : 14.7 Mb/s
Movie name                               : Мулан / Mulan
Encoded date                             : UTC 2020-12-11 11:36:12
Writing application                      : v30.1.0 ('Forever And More') 64-bit
Writing library                          : libebml v1.3.6 + v1.4.9
Cover                                    : Yes
Attachments                              : cover.jpg

Video
ID                                       : 1
Format                                   : AVC
Format/Info                              : Advanced Video Codec
Format profile                           : [email protected]
Format settings                          : CABAC / 5 Ref Frames
Format settings, CABAC                   : Yes
Format settings, RefFrames               : 5 frames
Codec ID                                 : V_MPEG4/ISO/AVC
Duration                                 : 1 h 55 min
Bit rate                                 : 13.5 Mb/s
Width                                    : 1 920 pixels
Height                                   : 804 pixels
Display aspect ratio                     : 2.40:1
Frame rate mode                          : Constant
Frame rate                               : 23.976 (24000/1001) FPS
Color space                              : YUV
Chroma subsampling                       : 4:2:0
Bit depth                                : 8 bits
Scan type                                : Progressive
Bits/(Pixel*Frame)                       : 0.365
Stream size                              : 10.9 GiB (92%)
Writing library                          : core 161 r3018+53 ~ Encoded by Mocunaman in Portugal
Encoding settings                        : cabac=1 / ref=5 / deblock=1:-3:-3 / analyse=0x3:0x133 / me=umh / subme=11 / psy=1 / fade_compensate=0.00 / psy_rd=1.00:0.00 / mixed_ref=1 / me_range=32 / chroma_me=1 / trellis=2 / 8x8dct=1 / cqm=0 / deadzone=21,11 / fast_pskip=0 / chroma_qp_offset=-2 / threads=25 / lookahead_threads=6 / sliced_threads=0 / nr=0 / decimate=0 / interlaced=0 / bluray_compat=0 / constrained_intra=0 / fgo=0 / bframes=10 / b_pyramid=2 / b_adapt=2 / b_bias=0 / direct=3 / weightb=1 / open_gop=0 / weightp=2 / keyint=250 / keyint_min=23 / scenecut=40 / intra_refresh=0 / rc=2pass / mbtree=0 / bitrate=13500 / ratetol=1.0 / qcomp=0.65 / qpmin=0:0:0 / qpmax=69:69:69 / qpstep=4 / cplxblur=20.0 / qblur=0.5 / ip_ratio=1.30 / pb_ratio=1.20 / aq=3:0.85 / aq-sensitivity=10.00 / aq-factor=1.00:1.00:1.00 / aq2=0 / aq3=0 / zones=4940,9188,b=1.3/17492,19353,b=1.3/31163,38519,b=1.3/39407,40367,b=1.3/44351,47926,b=1.3/50470,50774,b=1.3/54806,56767,b=1.3/59983,63045,b=1.3/63358,65806,b=1.3/68086,68661,b=1.3/76173,79101,b=1.3/79562,82452,b=1.3/106188,114138,b=1.3/125922,126113,b=1.3/136673,141857,b=1.3
Language                                 : English
Default                                  : Yes
Forced                                   : No
Color range                              : Limited
Matrix coefficients                      : BT.709

Audio #1
ID                                       : 2
Format                                   : AC-3
Format/Info                              : Audio Coding 3
Commercial name                          : Dolby Digital
Codec ID                                 : A_AC3
Duration                                 : 1 h 55 min
Bit rate mode                            : Constant
Bit rate                                 : 384 kb/s
Channel(s)                               : 6 channels
Channel layout                           : L R C LFE Ls Rs
Sampling rate                            : 48.0 kHz
Frame rate                               : 31.250 FPS (1536 SPF)
Bit depth                                : 16 bits
Compression mode                         : Lossy
Stream size                              : 316 MiB (3%)
Title                                    : 5.1 | 384 | iTunes
Language                                 : Ukrainian
Service kind                             : Complete Main
Default                                  : Yes
Forced                                   : No

Audio #2
ID                                       : 3
Format                                   : AC-3
Format/Info                              : Audio Coding 3
Commercial name                          : Dolby Digital
Codec ID                                 : A_AC3
Duration                                 : 1 h 55 min
Bit rate mode                            : Constant
Bit rate                                 : 192 kb/s
Channel(s)                               : 2 channels
Channel layout                           : L R
Sampling rate                            : 48.0 kHz
Frame rate                               : 31.250 FPS (1536 SPF)
Bit depth                                : 16 bits
Compression mode                         : Lossy
Stream size                              : 158 MiB (1%)
Title                                    : 2.0 | 192 | В одне рило
Language                                 : Ukrainian
Service kind                             : Complete Main
Default                                  : No
Forced                                   : No

Audio #3
ID                                       : 4
Format                                   : AC-3
Format/Info                              : Audio Coding 3
Commercial name                          : Dolby Digital
Codec ID                                 : A_AC3
Duration                                 : 1 h 55 min
Bit rate mode                            : Constant
Bit rate                                 : 640 kb/s
Channel(s)                               : 6 channels
Channel layout                           : L R C LFE Ls Rs
Sampling rate                            : 48.0 kHz
Frame rate                               : 31.250 FPS (1536 SPF)
Bit depth                                : 16 bits
Compression mode                         : Lossy
Stream size                              : 527 MiB (4%)
Title                                    : 5.1 | 640 | Original
Language                                 : English
Service kind                             : Complete Main
Default                                  : No
Forced                                   : No

Text #1
ID                                       : 5
Format                                   : UTF-8
Codec ID                                 : S_TEXT/UTF8
Codec ID/Info                            : UTF-8 Plain Text
Duration                                 : 3 min 21 s
Bit rate                                 : 5 b/s
Count of elements                        : 3
Stream size                              : 145 Bytes (0%)
Title                                    : Forced
Language                                 : Ukrainian
Default                                  : Yes
Forced                                   : No

Text #2
ID                                       : 6
Format                                   : UTF-8
Codec ID                                 : S_TEXT/UTF8
Codec ID/Info                            : UTF-8 Plain Text
Duration                                 : 1 h 43 min
Bit rate                                 : 50 b/s
Count of elements                        : 848
Stream size                              : 38.2 KiB (0%)
Title                                    : Full
Language                                 : Ukrainian
Default                                  : No
Forced                                   : No

Text #3
ID                                       : 7
Format                                   : UTF-8
Codec ID                                 : S_TEXT/UTF8
Codec ID/Info                            : UTF-8 Plain Text
Duration                                 : 1 h 50 min
Bit rate                                 : 30 b/s
Count of elements                        : 923
Stream size                              : 24.6 KiB (0%)
Title                                    : Full
Language                                 : English
Default                                  : No
Forced                                   : No

Text #4
ID                                       : 8
Format                                   : UTF-8
Codec ID                                 : S_TEXT/UTF8
Codec ID/Info                            : UTF-8 Plain Text
Duration                                 : 1 h 50 min
Bit rate                                 : 36 b/s
Count of elements                        : 1150
Stream size                              : 29.6 KiB (0%)
Title                                    : SDH
Language                                 : English
Default                                  : No
Forced                                   : No

Menu #1
00:00:00.000                             : en:Chapter 01
00:06:29.760                             : en:Chapter 02
00:11:46.560                             : en:Chapter 03
00:18:00.960                             : en:Chapter 04
00:25:35.520                             : en:Chapter 05
00:32:42.720                             : en:Chapter 06
00:38:37.920                             : en:Chapter 07
00:46:12.960                             : en:Chapter 08
00:53:09.600                             : en:Chapter 09
00:58:12.000                             : en:Chapter 10
01:04:20.160                             : en:Chapter 11
01:10:36.480                             : en:Chapter 12
01:17:02.400                             : en:Chapter 13
01:21:31.200                             : en:Chapter 14

Menu #2
00:00:00.000                             : en:Chapter 01
00:04:44.117                             : en:Chapter 02
00:06:26.469                             : en:Chapter 03
00:09:29.151                             : en:Chapter 04
00:13:27.223                             : en:Chapter 05
00:20:51.583                             : en:Chapter 06
00:26:33.675                             : en:Chapter 07
00:29:03.992                             : en:Chapter 08
00:36:48.831                             : en:Chapter 09
00:41:41.707                             : en:Chapter 10
00:50:45.667                             : en:Chapter 11
00:57:19.060                             : en:Chapter 12
01:01:13.336                             : en:Chapter 13
01:11:22.820                             : en:Chapter 14
01:16:34.923                             : en:Chapter 15
01:22:11.551                             : en:Chapter 16
01:29:59.060                             : en:Chapter 17
01:34:59.819                             : en:Chapter 18
01:38:52.384                             : en:Chapter 19
01:44:40.399                             : en:Chapter 20
Скріншоти




Джерело: &
Особиста оцінка: 0 - не дивився


Авторський реліз (завантажувати можна без реєстрації)
 Трекер:    Зареєстрований   

Завантажити / скачати фільм українською



відео для новачків



 Зареєстрований:   2020-12-11 14:12
 Розмір:   11.84 GB 
 Оцінка фільму:   6.9/10 (Голосів: 10)
   
Інші релізи
   Мулан / Mulan (2020) UHD Remux 4K 2160p Ukr/Eng | sub Ukr/Eng antik_2008  10 / 0   48.79 GB   2020-12-11 17:27 
   Мулан / Mulan (2020) 720p 2xUkr/Eng | Sub Ukr/Eng igor911  10 / 0   4.78 GB   2020-12-11 17:26 
   Мулан / Mulan (2020) 2xUkr/Eng antik_2008  5 / 0   2.51 GB   2020-12-11 15:33 
   Мулан / Mulan (2020) AVC 2xUkr/Eng | Sub Ukr/Eng eneyida.tv  10 / 0   2.39 GB   2020-12-11 14:25 
   Мулан / Mulan (2020) Remux 1080p 2xUkr/Eng | Sub Ukr/Eng antik_2008  3 / 0   30.92 GB   2020-12-11 14:04 
   Мулан / Mulan (2020) UHD 2160p 4K HDR H.265 2xUkr/Eng | Sub Ukr/Eng Neo_Men  11 / 0   13.74 GB   2020-10-13 16:26 
maleficmax 
Свій


З нами з: 18.04.12
Востаннє: 21.01.21
Повідомлень: 91

2021-01-14 13:00  
Панове, а айтюнзову доріжку хтось в змозі викласти окремо? Дякую!
Ваш часовий пояс: GMT + 2 Години

Нова тема   Відповісти