Ферзевий гамбіт (Сезон 1) / The Queen's Gambit (Season 1) (2020) UHD 2160p 4K HDR H.265 Ukr/Eng | Sub Eng

Нові коментарі

Нова тема   Відповісти
Автор Повідомлення
RoMeL 
Відео Гуртом - підтримка та поширення
Відео Гуртом - підтримка та поширення


З нами з: 09.07.08
Востаннє: 05.03.21
Повідомлень: 329

2020-12-11 00:27  
Ферзевий гамбіт (Сезон 1) / The Queen's Gambit (Season 1) (2020) UHD 2160p 4K HDR H.265 Ukr/Eng | Sub Eng



Жанр: драма
Країна: США



Кінокомпанія: Flitcraft, Wonderful Films, Netflix
Автор ідеї: Скот Френк, Алан Скот
Актори: Аня Тейлор-Джой, Хлоя Піррі, Білл Кемп, Маріель Геллер, Марцін Дороцінський, Меттью Денніс Льюїс, Расселл Денніс Льюїс, Томас Броді-Сенгстер, Гаррі Меллінг, Джейкоб Форчун-Ллойд, Долорес Карбонарі, Патрік Кеннеді, Серджіо Ді Зіо

Сюжет:
Зворушлива історична драма знята за однойменним романом-бестселером Волтера Тевіса про дівчину-сироту, яка в ранньому віці відкрила в собі талант гри в шахи та стала найуспішнішою жінкою-гросмейстером Америки.

Події розгортаються у 1960-і роки. Дівчину звуть Елізабет Хармон. Вона рано лишається сиротою і опиняється в притулку, де вихователі з кращих міркувань підсаджують її на транквілізатори, а добрий прибиральник вчить її грі у шахи. Підлітком Бет потрапляє до не дуже щасливої прийомної сім'ї та робить стрімку шахову кар'єру...


Тривалість: 1 серія: ~ 1 год. (цілком серій: 7)
Перелік серій
01 - Openings
02 - Exchanges
03 - Doubled Pawns
04 - Middle Game
05 - Fork
06 - Adjournment
07 - End Game
Якість: 4K 2160p HDR H.265
Відео:
кодек: H.265 (HEVC)
розмір кадру: 3840 х 2160
бітрейт: ~13.6-15.1 Мбіт/сек (залежить від серії)
бітова глибина: 10 біт
кольоровий простір: BT.2020 (HDR)

Увага! Перед завантаженням переконайтесь, що ваш пристрій відтворення (та/або ПЗ) підтримує H.265 (HEVC)

Аудіо # 1:
мова: українська
переклад: професійний багатоголосий закадровий | DniproFilm
кодек: 5.1
бітрейт: 348 кб/с

Аудіо # 2:
мова: англійська
переклад: оригінал
кодек: E- 5.1 + Atmos
бітрейт: 640 кб/с

Субтитри # 1:
мова: українська (Forced)
тип: програмні (м'які)
формат: *.srt

Субтитри # 2-3:
мова: англійська (Forced SDH)
тип: програмні (м'які)
формат: *.srt
Info

Код:
General
Unique ID                                : 307018732832559592279605961251834270740 (0xE6F9A838089AFE37208477721A379414)
Complete name                            : /Volumes/Download/Shows/The.Queens.Gambit.S01.2020..2160p.HDR.[Ukr.Eng]/The.Queens.Gambit.S01E01.2020..2160p.HDR.[Ukr.Eng].
Format                                   :
Format version                           : Version 4
File size                                : 5.96 GiB
Duration                                 : 59 min 12 s
Overall bit rate                         : 14.4 Mb/s
Movie name                               : The.Queens.Gambit.S01E01.2020..2160p.HDR.[Ukr.Eng]
Encoded date                             : UTC 2020-12-10 19:28:47
Writing application                      : v51.0.0 ('I Wish') 64-bit
Writing library                          : libebml v1.4.0 + v1.6.2
Cover                                    : Yes
Attachments                              : cover.jpg

Video
ID                                       : 1
Format                                   : HEVC
Format/Info                              : High Efficiency Video Coding
Format profile                           : Main [email protected]@High
HDR format                               : SMPTE ST 2086, HDR10 compatible
Codec ID                                 : V_MPEGH/ISO/HEVC
Duration                                 : 58 min 7 s
Bit rate                                 : 13.6 Mb/s
Width                                    : 3 840 pixels
Height                                   : 2 160 pixels
Display aspect ratio                     : 16:9
Frame rate mode                          : Constant
Frame rate                               : 24.000 FPS
Color space                              : YUV
Chroma subsampling                       : 4:2:0 (Type 2)
Bit depth                                : 10 bits
Bits/(Pixel*Frame)                       : 0.069
Stream size                              : 5.54 GiB (93%)
Writing library                          : x265 3.4+26-g83e2d7fb0:[Windows][GCC 9.3.0][64 bit] 10bit
Encoding settings                        : cpuid=1111039 / frame-threads=4 / numa-pools=28 / wpp / no-pmode / no-pme / no-psnr / no-ssim / log-level=2 / input-csp=1 / input-res=3840x2160 / interlace=0 / total-frames=0 / level-idc=51 / high-tier=1 / uhd-bd=0 / ref=4 / no-allow-non-conformance / repeat-headers / annexb / no-aud / no-hrd / info / hash=0 / no-temporal-layers / no-open-gop / min-keyint=24 / keyint=250 / gop-lookahead=0 / bframes=3 / b-adapt=2 / b-pyramid / bframe-bias=0 / rc-lookahead=20 / lookahead-slices=8 / scenecut=40 / hist-scenecut=0 / radl=0 / no-splice / no-intra-refresh / ctu=64 / min-cu-size=8 / no-rect / no-amp / max-tu-size=32 / tu-inter-depth=1 / tu-intra-depth=1 / limit-tu=0 / rdoq-level=0 / dynamic-rd=0.00 / no-ssim-rd / signhide / no-tskip / nr-intra=0 / nr-inter=0 / no-constrained-intra / no-strong-intra-smoothing / max-merge=3 / limit-refs=1 / no-limit-modes / me=1 / subme=2 / merange=57 / temporal-mvp / no-frame-dup / no-hme / weightp / no-weightb / no-analyze-src-pics / deblock=-3:-3 / no-sao / no-sao-non-deblock / rd=3 / selective-sao=0 / early-skip / rskip / no-fast-intra / no-tskip-fast / no-cu-lossless / b-intra / no-splitrd-skip / rdpenalty=0 / psy-rd=2.00 / psy-rdoq=0.00 / no-rd-refine / no-lossless / cbqpoffs=0 / crqpoffs=0 / rc=crf / crf=17.0 / qcomp=0.60 / qpstep=4 / stats-write=0 / stats-read=0 / vbv-maxrate=160000 / vbv-bufsize=160000 / vbv-init=0.9 / min-vbv-fullness=50.0 / max-vbv-fullness=80.0 / crf-max=0.0 / crf-min=0.0 / ipratio=1.40 / pbratio=1.30 / aq-mode=2 / aq-strength=1.00 / no-cutree / zone-count=0 / no-strict-cbr / qg-size=32 / no-rc-grain / qpmax=69 / qpmin=0 / no-const-vbv / sar=0 / overscan=0 / videoformat=5 / range=0 / colorprim=9 / transfer=16 / colormatrix=9 / chromaloc=1 / chromaloc-top=2 / chromaloc-bottom=2 / display-window=0 / master-display=G(13250,34500)B(7500,3000)R(34000,16000)WP(15635,16450)L(10000000,1) / cll=885,190 / min-luma=0 / max-luma=1023 / log2-max-poc-lsb=8 / vui-timing-info / vui-hrd-info / slices=1 / no-opt-qp-pps / no-opt-ref-list-length-pps / no-multi-pass-opt-rps / scenecut-bias=0.05 / hist-threshold=0.03 / no-opt-cu-delta-qp / no-aq-motion / hdr10 / hdr10-opt / no-dhdr10-opt / no-idr-recovery-sei / analysis-reuse-level=0 / analysis-save-reuse-level=0 / analysis-load-reuse-level=0 / scale-factor=0 / refine-intra=0 / refine-inter=0 / refine-mv=1 / refine-ctu-distortion=0 / no-limit-sao / ctu-info=0 / no-lowpass-dct / refine-analysis-type=0 / copy-pic=1 / max-ausize-factor=1.0 / no-dynamic-refine / no-single-sei / no-hevc-aq / no-svt / no-field / qp-adaptation-range=1.00 / no-scenecut-aware-qpconformance-window-offsets / right=0 / bottom=0 / decoder-max-rate=0 / no-vbv-live-multi-pass
Language                                 : English
Default                                  : Yes
Forced                                   : No
Color range                              : Limited
Color primaries                          : BT.2020
Transfer characteristics                 : PQ
Matrix coefficients                      : BT.2020 non-constant
Mastering display color primaries        : Display P3
Mastering display luminance              : min: 0.0001 cd/m2, max: 1000 cd/m2
Maximum Content Light Level              : 885 cd/m2
Maximum Frame-Average Light Level        : 190 cd/m2

Audio #1
ID                                       : 2
Format                                   : AC-3
Format/Info                              : Audio Coding 3
Commercial name                          : Dolby Digital
Codec ID                                 : A_AC3
Duration                                 : 59 min 12 s
Bit rate mode                            : Constant
Bit rate                                 : 384 kb/s
Channel(s)                               : 6 channels
Channel layout                           : L R C LFE Ls Rs
Sampling rate                            : 48.0 kHz
Frame rate                               : 31.250 FPS (1536 SPF)
Compression mode                         : Lossy
Delay relative to video                  : 12 ms
Stream size                              : 163 MiB (3%)
Title                                    : Ukrainian (DniproFilm)
Language                                 : Ukrainian
Service kind                             : Complete Main
Default                                  : Yes
Forced                                   : Yes

Audio #2
ID                                       : 3
Format                                   : E-AC-3
Format/Info                              : Enhanced AC-3
Commercial name                          : Dolby Digital Plus
Codec ID                                 : A_EAC3
Duration                                 : 59 min 12 s
Bit rate mode                            : Constant
Bit rate                                 : 640 kb/s
Channel(s)                               : 6 channels
Channel layout                           : L R C LFE Ls Rs
Sampling rate                            : 48.0 kHz
Frame rate                               : 31.250 FPS (1536 SPF)
Compression mode                         : Lossy
Delay relative to video                  : 16 ms
Stream size                              : 271 MiB (4%)
Title                                    : ENG E- 5.1 640kbit
Language                                 : English
Service kind                             : Complete Main
Default                                  : No
Forced                                   : No

Text #1
ID                                       : 4
Format                                   : UTF-8
Codec ID                                 : S_TEXT/UTF8
Codec ID/Info                            : UTF-8 Plain Text
Duration                                 : 47 min 19 s
Bit rate                                 : 1 b/s
Count of elements                        : 12
Stream size                              : 545 Bytes (0%)
Title                                    : Forced
Language                                 : Ukrainian
Default                                  : Yes
Forced                                   : Yes

Text #2
ID                                       : 5
Format                                   : UTF-8
Codec ID                                 : S_TEXT/UTF8
Codec ID/Info                            : UTF-8 Plain Text
Duration                                 : 56 min 23 s
Bit rate                                 : 45 b/s
Count of elements                        : 661
Stream size                              : 19.0 KiB (0%)
Title                                    : English [SDH]
Language                                 : English
Default                                  : No
Forced                                   : No
Скріншоти










Джерело: &
Особиста оцінка: 10 - без зайвих вагань рекомендую всім!


Авторський реліз (завантажувати можна без реєстрації)
 Трекер:    Зареєстрований   

Завантажити / скачати серіал українською



відео для новачків



 Зареєстрований:   2020-12-11 02:12
 Розмір:   41.73 GB 
 Оцінка серіалу:   9.9/10 (Голосів: 14)
   
bot 
робот


З нами з: 30.09.07
Востаннє: 26.05.05
Повідомлень: 27309

2020-12-11 00:27  
Тему перенесено з Серіали в HD до форуму Анонси релізів


RoMeL

bot 
робот


З нами з: 30.09.07
Востаннє: 26.05.05
Повідомлень: 27309

2020-12-11 02:12  
Тему перенесено з Анонси релізів до форуму Серіали в HD


RoMeL

John1992on 
Новенький


З нами з: 24.05.09
Востаннє: 26.02.21
Повідомлень: 2

2020-12-11 19:27  
мало на роздачі стоїть
don pedro 
Попереджень: 1
Попереджень: 1 


З нами з: 29.06.11
Востаннє: 05.03.21
Повідомлень: 18897

2020-12-11 23:34  
John1992on
Це ж супер-пупер якісний реліз. Качайте, доки є, бо через місяць взагалі нікого на роздачі не буде.

RoMeL 
Відео Гуртом - підтримка та поширення
Відео Гуртом - підтримка та поширення


З нами з: 09.07.08
Востаннє: 05.03.21
Повідомлень: 329

2020-12-12 19:30  
don pedro
серіал популярний, думаю, що через місяць буде багато сідерів Happy

Мені серіал сподобався, неміг відірватись поки не переглянув весь...
Хоча не розумію чим він так зачепив...
Можливо тим, що коли був малий,то був період часу, що я сильно зацікавився шахматами, памятаю читав книжки, вивчав етюди, сицилійський захист, ферзевий гамбіт... напевно тому так сильно співпереживаєш героїні, бо дуже легко поставити себе на її місце Happy і сама героїня дуже харизматична, думаю по скріншотам це зразу зрозуміло)) також переглядаючи серіал ніяк не міг зрозуміти це історія успіху чи великого провалу.
Рекомендую всім до перегляду Happy

don pedro 
Попереджень: 1
Попереджень: 1 


З нами з: 29.06.11
Востаннє: 05.03.21
Повідомлень: 18897

2020-12-13 18:07  
RoMeL написано:
Мені серіал сподобався, неміг відірватись поки не переглянув весь...

Я теж переглянув за два дні.

Ваш часовий пояс: GMT + 2 Години

Нова тема   Відповісти