Вокс Люкс / Vox Lux (2018) 720p Ukr/Eng | Sub Eng

Нові коментарі

Нова тема   Відповісти
Автор Повідомлення
Anonymous 







2020-12-10 08:46  
Вокс Люкс / Vox Lux (2018) 720p Ukr/Eng | Sub Eng

Вокс Люкс / Vox Lux (2018) 720p Ukr/Eng | Sub Eng


Жанр: драма
Країна: США





Кінокомпанія: Andrew Lauren Productions (ALP), Bold Films, Killer Films
Режисер: Брейді Корбет
Актори: Наталі Портман, Стейсі Мартін, Джуд Лоу, Дженніфер Елі, Реффі Кессіді, Крістофер Ебботт, Марія Діззія, Мэг Гибсон, Дэниэл Лондон, Майкл Річардсон, Метт Сервітто, Лесли Силва та інші

Сюжет:
Селесті, можна сказати, дуже пощастило у житті. Усе почалося ще у шкільні роки, коли її однокласник вирішив влаштувати у школі стрілянину. Дівчина тільки дивом вціліла, що не можна сказати про інших дітей. Як прояв співчуття талановита Селеста вирішила записати пісню. Цей виступ потрапив на федеральний канал, а потім і на очі продюсерів, які запропонували їй контракт із лейблом. Із того моменту пройшло 20 років, Селеста стала світовою знаменитістю, яку люблять у кожному куточку нашої планети. І весь цей час вона живе із психологічною травмою, завдяки якій жінка і стала популярною.


Тривалість: 01:54:27
Якість: 720p

Відео:
кодек:
розмір кадру: 1200 x 720
бітрейт: 5625 кб/с

Аудіо # 1:
мова: українська
переклад: багатоголосий закадровий
кодек: 5.1
бітрейт: 384 кб/с

Аудіо # 2:
мова: англійська
переклад: оригінал
кодек: 5.1
бітрейт: 1510 кб/с

Субтитри: (Full)
мова: англійська
тип: програмні (м'які)
формат: *.srt

Субтитри: (SDH)
мова: англійська
тип: програмні (м'які)
формат: *.srt
Info
General
Complete name : Vox Lux (2018) 720p [Ukr_Eng] [Hurtom].
Format :
Format version : Version 4
File size : 6.01 GiB
Duration : 1 h 54 min
Overall bit rate : 7 521 kb/s
Movie name : Вокс Люкс / Vox Lux (2018)
Encoded date : UTC 2020-12-10 06:31:08
Writing application : v30.1.0 ('Forever And More') 64-bit
Writing library : libebml v1.3.6 + v1.4.9
Cover : Yes
Attachments : cover.jpeg

Video
ID : 1
Format : AVC
Format/Info : Advanced Video Codec
Format profile : [email protected]
Format settings : CABAC / 9 Ref Frames
Format settings, CABAC : Yes
Format settings, RefFrames : 9 frames
Codec ID : V_MPEG4/ISO/AVC
Duration : 1 h 54 min
Bit rate : 5 625 kb/s
Width : 1 200 pixels
Height : 720 pixels
Display aspect ratio : 5:3
Frame rate mode : Constant
Frame rate : 23.976 (24000/1001) FPS
Color space : YUV
Chroma subsampling : 4:2:0
Bit depth : 8 bits
Scan type : Progressive
Bits/(Pixel*Frame) : 0.272
Stream size : 4.50 GiB (75%)
Title : CHD
Writing library : core 155 r2867+74 66b5600 t_mod_Custom_2 [[email protected] X86_64]
Encoding settings : cabac=1 / ref=9 / deblock=1:-3:-3 / analyse=0x3:0x113 / me=umh / subme=10 / psy=1 / fade_compensate=0.00 / psy_rd=0.90:0.10 / mixed_ref=1 / me_range=32 / chroma_me=1 / trellis=2 / 8x8dct=1 / cqm=0 / deadzone=21,11 / fast_pskip=0 / chroma_qp_offset=-2 / threads=18 / lookahead_threads=3 / sliced_threads=0 / nr=0 / decimate=1 / interlaced=0 / bluray_compat=0 / constrained_intra=0 / fgo=0 / bframes=8 / b_pyramid=2 / b_adapt=2 / b_bias=0 / direct=3 / weightb=1 / open_gop=0 / weightp=2 / keyint=250 / keyint_min=23 / scenecut=40 / intra_refresh=0 / rc_lookahead=40 / rc=crf / mbtree=0 / crf=20.0000 / qcomp=0.70 / qpmin=0:0:0 / qpmax=69:69:69 / qpstep=4 / vbv_maxrate=30000 / vbv_bufsize=30000 / crf_max=0.0 / nal_hrd=none / filler=0 / ip_ratio=1.40 / pb_ratio=1.30 / aq=3:0.90 / aq-sensitivity=10.00 / aq-factor=1.00:1.00:1.00 / aq2=0 / aq3=2:[0.50:0.50]:[0.50:0.50]:[0.50:0.50]:[0.50:0.50] / aq3-sensitivity=10.00 / aq3-factor=[1.00:1.00]:[1.00:1.00]:[1.00:1.00] / aq3-boundary=192:64:24
Language : English
Default : Yes
Forced : No
Color range : Limited
Matrix coefficients : BT.709

Audio #1
ID : 2
Format : AC-3
Format/Info : Audio Coding 3
Commercial name : Dolby Digital
Codec ID : A_AC3
Duration : 1 h 54 min
Bit rate mode : Constant
Bit rate : 384 kb/s
Channel(s) : 6 channels
Channel layout : L R C LFE Ls Rs
Sampling rate : 48.0 kHz
Frame rate : 31.250 FPS (1536 SPF)
Bit depth : 16 bits
Compression mode : Lossy
Stream size : 314 MiB (5%)
Title : 5.1 | 384
Language : Ukrainian
Service kind : Complete Main
Default : Yes
Forced : No

Audio #2
ID : 3
Format :
Format/Info : Digital Theater Systems
Codec ID : A_DTS
Duration : 1 h 54 min
Bit rate mode : Constant
Bit rate : 1 509 kb/s
Channel(s) : 6 channels
Channel layout : C L R Ls Rs LFE
Sampling rate : 48.0 kHz
Frame rate : 93.750 FPS (512 SPF)
Bit depth : 24 bits
Compression mode : Lossy
Stream size : 1.21 GiB (20%)
Title : 5.1 | 1510
Language : English
Default : No
Forced : No

Text #1
ID : 4
Format : UTF-8
Codec ID : S_TEXT/UTF8
Codec ID/Info : UTF-8 Plain Text
Duration : 1 h 48 min
Bit rate : 72 b/s
Count of elements : 1609
Stream size : 57.4 KiB (0%)
Title : Full
Language : English
Default : No
Forced : No

Text #2
ID : 5
Format : UTF-8
Codec ID : S_TEXT/UTF8
Codec ID/Info : UTF-8 Plain Text
Duration : 1 h 48 min
Bit rate : 76 b/s
Count of elements : 1703
Stream size : 60.7 KiB (0%)
Title : SDH
Language : English
Default : No
Forced : No

Menu
00:00:00.000 : :绗?01 绔?
00:09:16.931 : :绗?02 绔?
00:17:29.173 : :绗?03 绔?
00:26:58.242 : :绗?04 绔?
00:36:10.960 : :绗?05 绔?
00:49:39.852 : :绗?06 绔?
01:11:39.128 : :绗?07 绔?
01:16:52.441 : :绗?08 绔?
01:24:37.322 : :绗?09 绔?
01:31:45.834 : :绗?10 绔?
01:36:05.343 : :绗?11 绔?
01:49:42.868 : :绗?12 绔?
Скріншоти


Велика подяка за звук п.PuMa.ua , kryk-v.ya.
Джерело:
Особиста оцінка: 7 - моїй подрузі не сподобалося


 Трекер:    Зареєстрований   

Завантажити / скачати фільм українською



відео для новачків



 Зареєстрований:   2020-12-10 08:46
 Розмір:   6.01 GB 
 Оцінка фільму:   8.5/10 (Голосів: 6)
   
Інші релізи
   Вокс Люкс / Vox Lux (2018) Remux 1080p Ukr/Eng | Sub Eng antik_2008  1 / 0   20.24 GB   2020-12-10 23:22 
   Вокс Люкс / Vox Lux (2018) Ukr/Eng antik_2008  3 / 0   2 GB   2020-12-10 23:21 
   Вокс Люкс / Vox Lux (2018) 1080p Ukr/Eng | sub Eng sergiyko.5  1 / 0   10.95 GB   2020-12-10 08:28 
   Вокс Люкс / Vox Lux (2018) AVC Ukr/Eng | Sub Eng antik_2008  7 / 0   2.48 GB   2020-12-10 07:25 
Ваш часовий пояс: GMT + 2 Години

Нова тема   Відповісти