Ліга Чемпіонів 2020-2021 / Група B / 6-й тур / Інтер Мілан (Італія) - Шахтар Донецьк (Україна) | Volia Football 1 HD (09.12.2020) 1080p

Нові коментарі

Нова тема   Відповісти
Останній раз роздавалося antik_2008 (2021-01-27)
Автор Повідомлення
Anonymous 







2020-12-10 07:59  
Ліга Чемпіонів 2020-2021 / Група B / 6-й тур / Інтер Мілан (Італія) - Шахтар Донецьк (Україна) | Volia Football 1 HD (09.12.2020) 1080p


Ліга Чемпіонів 2020-2021 / Група B / 6-й тур / Інтер Мілан (Італія) - Шахтар Донецьк (Україна) | Volia Football 1 HD (09.12.2020) 1080p

Телеканал: Volia Football 1 HD
Коментатор: Роман Бебех / Вадим Скічко

Опис:
Ліга Чемпіонів 2020-2021 / Група B / 6-й тур / Інтер Мілан (Італія) - Шахтар Донецьк (Україна)

Якість:

Відео: кодек: розмір кадру: 1920x1080 бітрейт: ~6000 кб/с
Аудіо: мова: українська кодек: 2.0 бітрейт: 192 кб/с
Склад команд:
Інтер: 1. Ханданович С., 6. де Врей, 37. Шкрініар, 2. Хакимі (до 85 '), 95. Бастони (до 85'), 5. Гальярдіні (до 75 '), 15. Янг Е. ( до 69 '), 77. Брозовіч, 23. Барелла, 9. Лукаку Р., 10. Мартінес Л. (до 85')

Шахтар: 81. Трубін, 2. Додо, 49. Віта (до 36 '), 77. Бондар В., 22. Матвієнко Н., 6. Степаненко, 20. Коваленко Вік., 27. Майкон Барберан, 14. Тете ( до 65 '), 11. Марлос (до 65'), 7. Тайсон (до 86 ')
Тривалість:
01:48:06
Про файл:
General
Complete name : CL.2020-21.t6.GrB.Shakhtar Donetsk-Inter Milan.1080p.mazepa.
Format :
Format version : Version 4
File size : 4.74 GiB
Duration : 1 h 48 min
Overall bit rate mode : Variable
Overall bit rate : 6 279 kb/s
Movie name : rip by mazepa.to
Encoded date : UTC 2020-12-09 22:37:50
Writing application : v48.0.0 ('Fortress Around Your Heart') 64-bit
Writing library : libebml v1.4.0 + v1.6.0

Video
ID : 1
Format : AVC
Format/Info : Advanced Video Codec
Format profile : [email protected]
Format settings : CABAC / 2 Ref Frames
Format settings, CABAC : Yes
Format settings, RefFrames : 2 frames
Format settings, GOP : M=3, N=25
Codec ID : V_MPEG4/ISO/AVC
Duration : 1 h 48 min
Bit rate mode : Variable
Bit rate : 6 086 kb/s
Maximum bit rate : 7 500 kb/s
Width : 1 920 pixels
Height : 1 080 pixels
Display aspect ratio : 16:9
Frame rate mode : Constant
Frame rate : 25.000 FPS
Color space : YUV
Chroma subsampling : 4:2:0
Bit depth : 8 bits
Scan type : Progressive
Bits/(Pixel*Frame) : 0.117
Stream size : 4.60 GiB (97%)
Language : English
Default : No
Forced : No

Audio
ID : 2
Format : LC
Format/Info : Advanced Audio Codec Low Complexity
Codec ID : A_AAC-2
Duration : 1 h 48 min
Bit rate : 192 kb/s
Channel(s) : 2 channels
Channel layout : L R
Sampling rate : 48.0 kHz
Frame rate : 46.875 FPS (1024 SPF)
Compression mode : Lossy
Stream size : 147 MiB (3%)
Language : Ukrainian
Default : Yes
Forced : No

Menu
00:00:00.000 : :Chapter 1
00:01:06.440 : :Chapter 2
00:01:43.880 : :Chapter 3
00:49:36.680 : :Chapter 4
Скріншоти:




Автор запису: sergiyko

Джерело:


Бронзовий реліз (на рейтинг впливає 75% завантаженого)
 Трекер:    Зареєстрований   

Завантажити / скачати торрент



відео для новачків



 Зареєстрований:   2020-12-10 07:59
 Розмір:   4.74 GB 
 Оцінка:   10/10 (Голосів: 2)
   
staf777 
Відео Гуртом - підтримка та поширення
Відео Гуртом - підтримка та поширення


З нами з: 16.11.16
Востаннє: 05.03.21
Повідомлень: 5105

2020-12-10 08:01  
Заслужено потрапили до ЛЄ ... єх як би Реал програв німцям ...

tilda4334 
Відео Гуртом - фільмокрай
Відео Гуртом - фільмокрай


З нами з: 15.08.14
Востаннє: 05.03.21
Повідомлень: 1435

2020-12-10 11:35  
staf777 написано:
Заслужено потрапили до ЛЄ

Так, нажаль наші команди не тягнуть рівень ЛЧ.

Ваш часовий пояс: GMT + 2 Години

Нова тема   Відповісти