Ліга Чемпіонів UEFA. Група G. 6 тур. Динамо Київ (Україна) - Ференцварош (Угорщина) (08.12.2020) 720p 50fps

Нові коментарі

Нова тема   Відповісти
Автор Повідомлення
misamisk 
Поважний учасник


З нами з: 16.10.17
Востаннє: 27.02.21
Повідомлень: 157

2020-12-09 16:53  
Ліга Чемпіонів UEFA. Група G. 6 тур. Динамо Київ (Україна) - Ференцварош (Угорщина) (08.12.2020) 720p 50fps

Ліга Чемпіонів UEFA. Група G. 6 тур. Динамо Київ (Україна) - Ференцварош (Угорщина) (08.12.2020) 720p 50fps


Телеканал: Футбол 1 HD
Опис:
Матч відбувся 8 грудня 2020 року у Києві на НСК "Олімпійський".

Матч обслуговували:
Рефері: Андреас Екберг (Швеція)
Асистенти рефері: Мехмет Калум (Швеція), Стефан Гальберг (Швеція)
Четвертий арбітр: Крістофер Карлсон (Швеція)
VAR: Крістіан Дінґерт
Асистент VAR: Даніел Зіберт (Німеччина)

Коментатор: Олександр Михайлюк


Автор ріпа: shakhtyor

Тривалість: 01:43:20
Якість:
Відео:
кодек:
розмір кадру: 1280 x 720
бітрейт: ~3470 кб/с

Аудіо:
мова: українська
переклад: одноголосий закадровий
кодек: 2.0
бітрейт: 128 кб/с
Стартові склади
Info
General
Unique ID : 270051243931431711955254413173831987051 (0xCB29FA4BE6A4C7F379A528F84BDB6F6B)
Complete name : Dynamo Kyiv - Ferencvaros.
Format :
Format version : Version 4
File size : 2.65 GiB
Duration : 1 h 43 min
Overall bit rate : 3 674 kb/s
Writing application : VideoReDo (Lavf58.29.100)
Writing library : VideoReDo (Lavf58.29.100)
ErrorDetectionType : Per level 1

Video
ID : 1
Format : AVC
Format/Info : Advanced Video Codec
Format profile : [email protected]
Format settings : CABAC / 4 Ref Frames
Format settings, CABAC : Yes
Format settings, Reference frames : 4 frames
Codec ID : V_MPEG4/ISO/AVC
Duration : 1 h 43 min
Bit rate : 3 473 kb/s
Nominal bit rate : 1 694 kb/s
Width : 1 280 pixels
Height : 720 pixels
Display aspect ratio : 16:9
Frame rate mode : Constant
Frame rate : 50.000 FPS
Color space : YUV
Chroma subsampling : 4:2:0
Bit depth : 8 bits
Scan type : Progressive
Bits/(Pixel*Frame) : 0.075
Stream size : 2.51 GiB (95%)
Writing library : core 160 r3000
Encoding settings : cabac=1 / ref=4 / deblock=1:0:0 / analyse=0x3:0x113 / me=hex / subme=4 / psy=1 / psy_rd=1.00:0.00 / mixed_ref=0 / me_range=16 / chroma_me=1 / trellis=1 / 8x8dct=1 / cqm=0 / deadzone=21,11 / fast_pskip=1 / chroma_qp_offset=-2 / threads=22 / lookahead_threads=5 / sliced_threads=0 / nr=0 / decimate=1 / interlaced=0 / bluray_compat=0 / constrained_intra=0 / bframes=3 / b_pyramid=2 / b_adapt=1 / b_bias=0 / direct=1 / weightb=1 / open_gop=0 / weightp=1 / keyint=134 / keyint_min=13 / scenecut=0 / intra_refresh=0 / rc_lookahead=20 / rc=abr / mbtree=1 / bitrate=1694 / ratetol=1.0 / qcomp=0.60 / qpmin=0 / qpmax=69 / qpstep=4 / vbv_maxrate=24999 / vbv_bufsize=3750 / nal_hrd=none / filler=0 / ip_ratio=1.40 / aq=1:1.00
Default : No
Forced : No

Audio
ID : 2
Format : AC-3
Format/Info : Audio Coding 3
Commercial name : Dolby Digital
Codec ID : A_AC3
Duration : 1 h 43 min
Bit rate mode : Constant
Bit rate : 128 kb/s
Channel(s) : 2 channels
Channel layout : L R
Sampling rate : 48.0 kHz
Frame rate : 31.250 FPS (1536 SPF)
Compression mode : Lossy
Stream size : 94.6 MiB (3%)
Language : Ukrainian
Service kind : Complete Main
Default : Yes
Forced : No

Menu
00:00:00.000 : :Chapter 1
00:52:52.300 : :Chapter 2
Скріншоти
Подяка за допомогу у створенні релізу : rgfootball


Золотий реліз (завантажене не впливає на рейтинг)
 Трекер:    Зареєстрований   

Завантажити / скачати торрент



відео для новачків



 Зареєстрований:   2020-12-09 16:53
 Розмір:   2.65 GB 
 Оцінка:   10/10 (Голосів: 3)
   
tilda4334 
Відео Гуртом - фільмокрай
Відео Гуртом - фільмокрай


З нами з: 15.08.14
Востаннє: 27.02.21
Повідомлень: 1418

2020-12-09 18:07  
Вимучили попадання в ЛЄ. І то добре)

werut 
Новенький


З нами з: 09.12.20
Востаннє: 09.12.20
Повідомлень: 1

2020-12-09 19:10  
Цитата:
Джерело: xxxxx


misamisk

Цитата:
2.10 Публікувати відкриті і приховані посилання в дописі і підписі на:
- файлообмінники, варезники, фтп та сторонні торрент-трекери...

misamisk 
Поважний учасник


З нами з: 16.10.17
Востаннє: 27.02.21
Повідомлень: 157

2020-12-09 20:37  
werut
Я думаю, що при вказуванні джерела це є дозволеним. Подивіться у інші релізи матчів єврокубків - там схожа ситуація

feron9 
Забанено
Забанено


З нами з: 07.11.17
Востаннє: 21.01.21
Повідомлень: 55

2020-12-09 21:12  
Ви не розумієте, що таке напис, а що таке посилання, натискаючи яке, переходиш на інший сайт. Ваш варіант заборонений. І чому ви минулі ваші релізи так не маркували, мабуть через заборону модератора?
misamisk 
Поважний учасник


З нами з: 16.10.17
Востаннє: 27.02.21
Повідомлень: 157

2020-12-09 21:27  
feron9
На мою думку, немає різниці - посилання на сайт чи напис у формі посилання на сайт. Якщо модератори попросять - виправлю на Ваш варіант, але вважаю, що вони рівнозначні

601сан 
VIP


З нами з: 22.05.12
Востаннє: 28.02.21
Повідомлень: 351

2020-12-11 17:40  
misamisk
Весною та літом "Футболи" показували ретро єврокубки.Ви випадково нічого не записали?Якщо так то хотілося б і ці матчі переглянути.

misamisk 
Поважний учасник


З нами з: 16.10.17
Востаннє: 27.02.21
Повідомлень: 157

2020-12-11 17:43  
601сан
Я взагалі релізерською діяльністю почав займатися тільки на початку сезону, нічого з цього не записав

601сан 
VIP


З нами з: 22.05.12
Востаннє: 28.02.21
Повідомлень: 351

2020-12-11 17:55  
misamisk
Шкода.
Дякую Вам за релізи.

Ваш часовий пояс: GMT + 2 Години

Нова тема   Відповісти