2067: Петля часу / 2067 (2020) Remux 1080p Ukr/Eng | Sub Eng

Нові коментарі

Нова тема   Відповісти
Автор Повідомлення
Anonymous 







2020-12-09 11:21  
2067: Петля часу / 2067 (2020) Remux 1080p Ukr/Eng | Sub Eng

2067: Петля часу / 2067 (2020) Remux 1080p Ukr/Eng | Sub Eng


Жанр: Фантастика
Країна: Австралія



Кінокомпанія: Arcadia, Futurism Studios, Kojo Entertainment, Elevate Production Finance, Rocketboy
Режисер: ‎Сет Ларні‎
Актори: Аарон Гленнейн , Дебора Мейлман, Деміен Уолш-Хоулінг, Коді Сміт-МакФі, Ліанна Уолсмен, Райан Квантен, Фінн Літтл, Енді МакФі

Сюжет:
Майбутнє. Після глобальної зміни клімату люди на Землі виживають, використовуючи штучний кисень. Бурильник тунелів Ітан сподівається врятувати дружину, яка страждає від невідомої хвороби, що охопила населення планети. Йому випадає місія: використовуючи переміщення в часі, вирушити до нового незвіданого світу, щоб знайти ліки для порятунку людства...


Тривалість: 01:54:18
Якість: Remux 1080p
Відео:
кодек:
розмір кадру: 1920x1080
бітрейт: 27700 кб/с

Аудіо # 1:
мова: українська
переклад: професійний дубльований
кодек: 2.0
бітрейт: 192 кб/с

Аудіо # 2:
мова: англійська
переклад: оригінал
кодек: -HD MA 5.1
бітрейт: 3394 кб/с

Субтитри:
мова: англійська
тип: програмні (м'які)
формат: *.srt

Збережено оригінальні розділи, як на Blu-ray
Info
General
Complete name : 2067 (2020) Remux 1080p [Ukr, Eng] [Hurtom].
Format :
Format version : Version 4
File size : 25.0 GiB
Duration : 1 h 54 min
Overall bit rate mode : Variable
Overall bit rate : 31.3 Mb/s
Movie name : 2067: Петля часу / 2067 (2020)
Encoded date : UTC 2020-12-10 21:49:47
Writing application : v30.1.0 ('Forever And More') 64-bit
Writing library : libebml v1.3.6 + v1.4.9
Cover : Yes
Attachments : cover.jpg

Video
ID : 1
Format : AVC
Format/Info : Advanced Video Codec
Format profile : [email protected]
Format settings : CABAC / 4 Ref Frames
Format settings, CABAC : Yes
Format settings, RefFrames : 4 frames
Codec ID : V_MPEG4/ISO/AVC
Duration : 1 h 54 min
Bit rate mode : Variable
Bit rate : 27.7 Mb/s
Maximum bit rate : 36.0 Mb/s
Width : 1 920 pixels
Height : 1 080 pixels
Display aspect ratio : 16:9
Frame rate mode : Constant
Frame rate : 23.976 (24000/1001) FPS
Color space : YUV
Chroma subsampling : 4:2:0
Bit depth : 8 bits
Scan type : Progressive
Bits/(Pixel*Frame) : 0.558
Stream size : 22.1 GiB (89%)
Language : English
Default : Yes
Forced : No

Audio #1
ID : 2
Format : AC-3
Format/Info : Audio Coding 3
Commercial name : Dolby Digital
Codec ID : A_AC3
Duration : 1 h 54 min
Bit rate mode : Constant
Bit rate : 192 kb/s
Channel(s) : 2 channels
Channel layout : L R
Sampling rate : 48.0 kHz
Frame rate : 31.250 FPS (1536 SPF)
Bit depth : 16 bits
Compression mode : Lossy
Stream size : 157 MiB (1%)
Title : 2.0 | 192
Language : Ukrainian
Service kind : Complete Main
Default : Yes
Forced : No

Audio #2
ID : 3
Format : XLL
Format/Info : Digital Theater Systems
Commercial name : -HD Master Audio
Codec ID : A_DTS
Duration : 1 h 54 min
Bit rate mode : Variable
Bit rate : 3 394 kb/s
Channel(s) : 6 channels
Channel layout : C L R Ls Rs LFE
Sampling rate : 48.0 kHz
Frame rate : 93.750 FPS (512 SPF)
Bit depth : 24 bits
Compression mode : Lossless
Stream size : 2.71 GiB (11%)
Title : -HD MA 5.1 | 3394
Language : English
Default : No
Forced : No

Text
ID : 4
Format : UTF-8
Codec ID : S_TEXT/UTF8
Codec ID/Info : UTF-8 Plain Text
Duration : 1 h 50 min
Bit rate : 45 b/s
Count of elements : 1352
Stream size : 36.8 KiB (0%)
Title : SDH
Language : English
Default : No
Forced : No

Menu
00:00:00.000 : en:Chapter 01
00:18:22.435 : en:Chapter 02
00:36:01.534 : en:Chapter 03
01:01:42.991 : en:Chapter 04
01:15:35.406 : en:Chapter 05
01:24:37.239 : en:Chapter 06
01:36:34.372 : en:Chapter 07
01:47:25.939 : en:Chapter 08
Скріншоти


Джерело:
Особиста оцінка: 0 - не дивився


Золотий реліз (завантажене не впливає на рейтинг)
 Трекер:    Зареєстрований   

Завантажити / скачати фільм українською



відео для новачків



 Зареєстрований:   2020-12-11 00:07
 Розмір:   25 GB 
 Оцінка фільму:   6.6/10 (Голосів: 18)
   
Інші релізи
   2067: Петля часу / 2067 (2020) 1080p Ukr/Eng | Sub Eng staf777  30 / 2   11.02 GB   2020-12-11 01:23 
   2067: Петля часу / 2067 (2020) Ukr/Eng antik_2008  29 / 0   1.98 GB   2020-12-11 01:19 
   2067: Петля часу / 2067 (2020) 720p Ukr/Eng | Sub Eng staf777  23 / 0   4.15 GB   2020-12-10 21:16 
   2067: Петля часу / 2067 (2020) AVC Ukr/Eng | Sub Eng staf777  51 / 0   1.78 GB   2020-12-10 20:25 
Anonymous 







2020-12-11 00:08  
Реліз готовий!
...canny... 
Новенький


З нами з: 27.01.18
Востаннє: 20.01.21
Повідомлень: 2

2020-12-11 16:36  
Anonymous
Чудово! Велике дякую

bigvovan 
Свій


З нами з: 10.03.09
Востаннє: 22.01.21
Повідомлень: 80

2020-12-30 08:26  
Як фільм? Бо оцінка IMDb не дуже.
Hako 
Свій


З нами з: 01.02.12
Востаннє: 13.01.21
Повідомлень: 65

2021-01-06 13:38  
Синтетичний кисень? Серйозно! Є багато способів добути нормальний кисень, хоча б електроліз води, якої на планеті скільки завгодно.
Фільм жахливий. Якщо вирізати з нього суцільне ниття і численні істерики головного героя, то залишилось би сюжету хвилин на 30.

Ваш часовий пояс: GMT + 2 Години

Нова тема   Відповісти