Вогнеборці / Only the Brave (2017) UHD Remux 4K 2160p HDR Dolby Vision TV H.265 Ukr/Eng | Sub Eng

Нові коментарі

Нова тема   Відповісти
Автор Повідомлення
MediumHD 
Частий відвідувач


З нами з: 24.04.20
Востаннє: 21.01.21
Повідомлень: 41

2020-12-07 20:30  


Вогнеборці / Only the Brave (2017) UHD Remux 4K 2160p HDR Dolby Vision TV H.265 Ukr/Eng | Sub Eng

Вогнеборці / Only the Brave (2017) UHD Remux 4K 2160p HDR Dolby Vision TV H.265 Ukr/Eng | Sub Eng


Жанр: біографічний, драма
Країна: США



Кінокомпанія: Sony / Columbia, Black Label Media, Conde Nast Entertainment, Di Bonaventura Pictures
Режисер: Джозеф Косінскі / Joseph Kosinski
Актори: Джош Бролін, Майлз Теллер, Джефф Бріджес, Дженніфер Коннеллі, Джеймс Бедж Дейл, Тейлор Кітч, Енді МакДавелл, Джофф Стульц, Алекс Расселл, Тед Лакінбілл та інші

Сюжет:
Головні герої фільму – пожежники. Вони все життя тренувалися для того, щоб у разі необхідності захистити своє рідне місто від вогню. Влітку 2013 року в горах поруч з містом Прескотт в штаті Арізона через блискавку спалахнула небувала пожежа. На її гасіння було кинуто всі сили. У тому числі загін «Granite Mountain Hotshots».


Тривалість: 02:14:03
Якість: UHD Remux
Відео:
кодек: H.265 (HEVC)
розмір кадру: 3840 х 2160
бітрейт: 50.9 мб/с
бітова глибина: 10 біт
кольоровий простір: BT.2020 (HDR Dolby Vision)

Аудіо:
мова: українська
переклад: багатоголосий закадровий
кодек: 2.0
бітрейт: 192 кб/с

Аудіо # 2:
мова: англійська
переклад: оригінал
кодек: 5.1
бітрейт: 640 Кбіт/с

Субтитри:
мова: англійська
тип: програмні (м'які)
формат: *.pjs
Info
Format : iso6
Codec ID : iso6 (dby1/iso6/mp42/isom/msdh)
File size : 47.7 GiB
Duration : 2 h 14 min
Overall bit rate : 50.9 Mb/s
Encoded date : UTC 2020-12-07 12:53:19
Tagged date : UTC 2020-12-07 12:53:19

Video #1
ID : 1
Format : HEVC
Format/Info : High Efficiency Video Coding
Format profile : Main [email protected]@High
HDR format : SMPTE ST 2086, HDR10 compatible
Codec ID : hev1
Codec ID/Info : High Efficiency Video Coding
Duration : 2 h 14 min
Bit rate : 40.0 Mb/s
Width : 3 840 pixels
Height : 2 160 pixels
Display aspect ratio : 16:9
Frame rate mode : Constant
Frame rate : 23.976 (24000/1001) FPS
Color space : YUV
Chroma subsampling : 4:2:0 (Type 2)
Bit depth : 10 bits
Bits/(Pixel*Frame) : 0.201
Stream size : 37.5 GiB (79%)
Default : No
Encoded date : UTC 2020-12-07 12:53:19
Tagged date : UTC 2020-12-07 12:53:19
Color range : Limited
Color primaries : BT.2020
Transfer characteristics : PQ
Matrix coefficients : BT.2020 non-constant
Mastering display color pri : BT.2020
Mastering display luminance : min: 0.0050 cd/m2, max: 4000 cd/m2
Maximum Content Light Level : 5352 cd/m2
Maximum Frame-Average Light : 301 cd/m2
Codec configuration box : hvcC

Video #2
ID : 2
Format : HEVC
Format/Info : High Efficiency Video Coding
Format profile : Main [email protected]@High
HDR format : Dolby Vision, Version 1.0, dvhe.07.06, EL+RPU, Blu-ray compatible / SMPTE ST 2086, HDR10 compatible
Codec ID : dvhe
Codec ID/Info : High Efficiency Video Coding with Dolby Vision
Duration : 2 h 14 min
Bit rate : 10.0 Mb/s
Width : 1 920 pixels
Height : 1 080 pixels
Display aspect ratio : 16:9
Frame rate mode : Constant
Frame rate : 23.976 (24000/1001) FPS
Color space : YUV
Chroma subsampling : 4:2:0 (Type 2)
Bit depth : 10 bits
Bits/(Pixel*Frame) : 0.202
Stream size : 9.40 GiB (20%)
Default : No
Encoded date : UTC 2020-12-07 12:53:19
Tagged date : UTC 2020-12-07 12:53:19
Color range : Limited
Color primaries : BT.2020
Transfer characteristics : PQ
Matrix coefficients : BT.2020 non-constant
Mastering display color pri : BT.2020
Mastering display luminance : min: 0.0050 cd/m2, max: 4000 cd/m2
Codec configuration box : hvcC+dvcC

Audio #1
ID : 3
Format : AC-3
Format/Info : Audio Coding 3
Commercial name : Dolby Digital
Codec ID : ac-3
Duration : 2 h 14 min
Bit rate mode : Constant
Bit rate : 192 kb/s
Channel(s) : 2 channels
Channel layout : L R
Sampling rate : 48.0 kHz
Frame rate : 31.250 FPS (1536 SPF)
Compression mode : Lossy
Stream size : 184 MiB (0%)
Service kind : Complete Main
Default : No
Encoded date : UTC 2020-12-07 12:53:19
Tagged date : UTC 2020-12-07 12:53:19

Audio #2
ID : 4
Format : AC-3
Format/Info : Audio Coding 3
Commercial name : Dolby Digital
Codec ID : ac-3
Duration : 2 h 14 min
Bit rate mode : Constant
Bit rate : 640 kb/s
Channel(s) : 6 channels
Channel layout : L R C LFE Ls Rs
Sampling rate : 48.0 kHz
Frame rate : 31.250 FPS (1536 SPF)
Compression mode : Lossy
Stream size : 614 MiB (1%)
Language : English
Service kind : Complete Main
Default : No
Encoded date : UTC 2020-12-07 12:53:19
Tagged date : UTC 2020-12-07 12:53:19
Скріншоти
Джерело: &


Золотий реліз (завантажене не впливає на рейтинг)
 Трекер:    Зареєстрований   

Завантажити / скачати фільм українською



відео для новачків



 Зареєстрований:   2020-12-07 20:30
 Розмір:   47.66 GB 
 Оцінка фільму:   9.4/10 (Голосів: 7)
   
Інші релізи
   Вогнеборці / Only the Brave (2017) 1080p 2xUkr/Eng | Sub Ukr/Eng antik_2008  9 / 0   16.13 GB   2020-12-21 01:12 
   Вогнеборці / Only the Brave (2017) Remux 1080p 2xUkr/Eng | Sub Ukr/Eng kryk-v.ya.  3 / 0   25.93 GB   2020-12-20 11:08 
   Вогнеборці / Only the Brave (2017) AVC 2xUkr/Eng | Sub Ukr/Eng krigg070  31 / 0   2.76 GB   2020-12-18 18:37 
   Вогнеборці / Only the Brave (2017) 720p 2xUkr/Eng | Sub Ukr/Eng igor911  22 / 0   6.64 GB   2020-12-18 14:40 
   Вогнеборці / Only the Brave (2017) Electroz  11 / 0   1.46 GB   2019-08-17 01:10 
sisak_i 
Частий відвідувач


З нами з: 01.05.08
Востаннє: 21.01.21
Повідомлень: 39

2020-12-08 00:29  
важке кіно
bortnikvadim 
Новенький


З нами з: 18.12.13
Востаннє: 04.01.21
Повідомлень: 6

2020-12-08 08:30  
Фільм рекомендую.
hur 
Частий відвідувач


З нами з: 29.11.10
Востаннє: 21.01.21
Повідомлень: 36

2020-12-30 08:40  
Доріжки поміняні місцями, тобто по замовчуванню - eng, а друга - укр.
igor911 
Модератор відео


З нами з: 18.01.08
Востаннє: 21.01.21
Повідомлень: 15353

2020-12-30 10:57  
hur, скинь, будь ласка, медіаінфо файла.
hur 
Частий відвідувач


З нами з: 29.11.10
Востаннє: 21.01.21
Повідомлень: 36

2020-12-30 20:46  
igor911
General Complete name : \\***\Вогнеборці (Only the Brave) 2017 UHD DV 4K HDR Remux (2160p)[Hurtom]\Вогнеборці (Only the Brave) 2017 UHD DV 4K HDR Remux (2160p)[Hurtom].mp4
Format : iso6
Codec ID : iso6 (dby1/iso6/mp42/isom/msdh)
File size : 47.7 GiB
Duration : 2 h 14 min
Overall bit rate : 50.9 Mb/s
Encoded date : UTC 2020-12-07 12:53:19
Tagged date : UTC 2020-12-07 12:53:19

Video #1
ID : 1
Format : HEVC
Format/Info : High Efficiency Video Coding
Format profile : Main [email protected]@High
Codec ID : hev1
Codec ID/Info : High Efficiency Video Coding
Duration : 2 h 14 min
Bit rate : 40.0 Mb/s
Width : 3 840 pixels
Height : 2 160 pixels
Display aspect ratio : 16:9
Frame rate mode : Constant
Frame rate : 23.976 (24000/1001) FPS
Color space : YUV
Chroma subsampling : 4:2:0 (Type 2)
Bit depth : 10 bits
Bits/(Pixel*Frame) : 0.201
Stream size : 37.5 GiB (79%)
Default : No
Encoded date : UTC 2020-12-07 12:53:19
Tagged date : UTC 2020-12-07 12:53:19
Color range : Limited
Color primaries : BT.2020
Transfer characteristics : SMPTE ST 2084
Matrix coefficients : BT.2020 non-constant
Mastering display color primar : R: x=0.708000 y=0.292000, G: x=0.170000 y=0.797000, B: x=0.131000 y=0.046000, White point: x=0.312700 y=0.329000
Mastering display luminance : min: 0.0050 cd/m2, max: 4000.0000 cd/m2
Maximum Content Light Level : 5352 cd/m2
Maximum Frame-Average Light Le : 301 cd/m2

Video #2
ID : 2
Format : HEVC
Format/Info : High Efficiency Video Coding
Format profile : Main [email protected]@High
Codec ID : dvhe
Duration : 2 h 14 min
Bit rate : 10.0 Mb/s
Width : 1 920 pixels
Height : 1 080 pixels
Display aspect ratio : 16:9
Frame rate mode : Constant
Frame rate : 23.976 (24000/1001) FPS
Color space : YUV
Chroma subsampling : 4:2:0 (Type 2)
Bit depth : 10 bits
Bits/(Pixel*Frame) : 0.202
Stream size : 9.40 GiB (20%)
Default : No
Encoded date : UTC 2020-12-07 12:53:19
Tagged date : UTC 2020-12-07 12:53:19
Color range : Limited
Color primaries : BT.2020
Transfer characteristics : SMPTE ST 2084
Matrix coefficients : BT.2020 non-constant
Mastering display color primar : R: x=0.708000 y=0.292000, G: x=0.170000 y=0.797000, B: x=0.131000 y=0.046000, White point: x=0.312700 y=0.329000
Mastering display luminance : min: 0.0050 cd/m2, max: 4000.0000 cd/m2

Audio #1
ID : 3
Format : AC-3
Format/Info : Audio Coding 3
Format settings, Endianness : Big
Codec ID : ac-3
Duration : 2 h 14 min
Bit rate mode : Constant
Bit rate : 192 kb/s
Channel(s) : 2 channels
Channel positions : Front: L R
Sampling rate : 48.0 kHz
Frame rate : 31.250 FPS (1536 SPF)
Bit depth : 16 bits
Compression mode : Lossy
Stream size : 184 MiB (0%)
Service kind : Complete Main
Default : No
Encoded date : UTC 2020-12-07 12:53:19
Tagged date : UTC 2020-12-07 12:53:19

Audio #2
ID : 4
Format : AC-3
Format/Info : Audio Coding 3
Format settings, Endianness : Big
Codec ID : ac-3
Duration : 2 h 14 min
Bit rate mode : Constant
Bit rate : 640 kb/s
Channel(s) : 6 channels
Channel positions : Front: L C R, Side: L R, LFE
Sampling rate : 48.0 kHz
Frame rate : 31.250 FPS (1536 SPF)
Bit depth : 16 bits
Compression mode : Lossy
Stream size : 614 MiB (1%)
Language : English
Service kind : Complete Main
Default : No
Encoded date : UTC 2020-12-07 12:53:19
Tagged date : UTC 2020-12-07 12:53:19
Upd. Не дуже в тому розуміюсь, але можливо проблема в "Default : No" для обох доріжок.

MediumHD 
Частий відвідувач


З нами з: 24.04.20
Востаннє: 21.01.21
Повідомлень: 41

2021-01-05 12:42  
Нащо захаращувати роздачу , безглуздими коментарями?
Нiчого тут не помiняно...

hur 
Частий відвідувач


З нами з: 29.11.10
Востаннє: 21.01.21
Повідомлень: 36

2021-01-08 12:01  
MediumHD
Ось так виглядає відкриття файлу MPC-HC:
Аналогічно і на телевізорі, за замовчуванням програється англ. доріжка.

Ваш часовий пояс: GMT + 2 Години

Нова тема   Відповісти