Чемпіонат Англії 2020/21 | Тоттенгем - Арсенал | 11 тур | Setanta Sports (06.12.2020) 1080p

Нові коментарі

Нова тема   Відповісти
Останній раз роздавалося misamisk (2021-03-08)
Автор Повідомлення
misamisk 
Поважний учасник


З нами з: 16.10.17
Востаннє: 08.03.21
Повідомлень: 157

2020-12-07 18:14  
Чемпіонат Англії 2020/21 | Тоттенгем - Арсенал | 11 тур | Setanta Sports (06.12.2020) 1080p

Чемпіонат Англії 2020/21 | Тоттенгем - Арсенал | 11 тур | Setanta Sports (06.12.2020) 1080p


Телеканал: Setanta Sports Ukraine
Опис:
Двісті перше дербі Північного Лондона відбулося 6 грудня 2020 року у Лондоні на "Тоттенгем Готспур Стедіум". Матч став першим для "Тоттенгема" з моменту початку пандемії COVID-19, на якому були присутні глядачі.

Матч обслуговували:
Рефері: Мартін Аткінсон
Асистенти рефері: Адам Нанн, Константін Хатцидакіс
Четвертий арбітр: Андре Маррінер
VAR: Кевін Френд
Асистент VAR: Марк Скоулз

Коментатор: Дмитро Джулай


Тривалість: 01:46:42
Якість:
Відео:
кодек:
розмір кадру: 1920 x 1080
бітрейт: 4000 кб/с

Аудіо:
мова: українська
переклад: одноголосий закадровий
кодек: 2.0
бітрейт: 320 кб/с
Info
General
Unique ID : 178587692030651109362637357374189071050 (0x865ABD065899718842CF4E20C40BEACA)
Complete name : EPL.2020-21.Matchday.11.Tottenham-Arsenal.06.12.2020..
Format :
Format version : Version 4
File size : 3.22 GiB
Duration : 1 h 46 min
Overall bit rate mode : Variable
Overall bit rate : 4 321 kb/s
Movie name : English Premier League 2020/21. Matchday 11. Tottenham Hotspur - Arsenal
Encoded date : UTC 2020-12-07 15:47:17
Writing application : v24.0.0 ('Beyond The Pale') 64-bit
Writing library : libebml v1.3.6 + v1.4.9

Video
ID : 1
Format : AVC
Format/Info : Advanced Video Codec
Format profile : [email protected]
Format settings : CABAC / 2 Ref Frames
Format settings, CABAC : Yes
Format settings, Reference frames : 2 frames
Format settings, GOP : M=1, N=25
Codec ID : V_MPEG4/ISO/AVC
Duration : 1 h 46 min
Bit rate mode : Variable
Bit rate : 3 998 kb/s
Maximum bit rate : 768 kb/s
Width : 1 920 pixels
Height : 1 080 pixels
Display aspect ratio : 16:9
Frame rate mode : Constant
Frame rate : 29.970 (30000/1001) FPS
Original frame rate : 25.000 FPS
Color space : YUV
Chroma subsampling : 4:2:0
Bit depth : 8 bits
Scan type : Progressive
Bits/(Pixel*Frame) : 0.064
Stream size : 2.98 GiB (93%)
Title : English Premier League 2020/21. Matchday 11. Tottenham Hotspur - Arsenal
Language : English
Default : Yes
Forced : No

Audio
ID : 2
Format : LC
Format/Info : Advanced Audio Codec Low Complexity
Codec ID : A_AAC-2
Duration : 1 h 46 min
Bit rate : 320 kb/s
Channel(s) : 2 channels
Channel layout : L R
Sampling rate : 44.1 kHz
Frame rate : 43.066 FPS (1024 SPF)
Compression mode : Lossy
Stream size : 244 MiB (7%)
Title : Commentaries by Dmytro Dzhulay
Language : Ukrainian
Default : Yes
Forced : No
Стартові склади
Скріншоти


Золотий реліз (завантажене не впливає на рейтинг)
 Трекер:    Зареєстрований   

Завантажити / скачати торрент



відео для новачків



 Зареєстрований:   2020-12-07 18:14
 Розмір:   3.22 GB 
 Оцінка:   9.5/10 (Голосів: 2)
   
Ваш часовий пояс: GMT + 2 Години

Нова тема   Відповісти