Безсоння / Insomnia (2002) Remux 1080p 3xUkr/Eng | Sub Eng [ITA Transfer]

Нові коментарі

Нова тема   Відповісти
Останній раз роздавалося ANDNATA25 (2020-12-20)
Автор Повідомлення
Anonymous 







2020-12-07 01:06  
Безсоння / Insomnia (2002) Remux 1080p 3xUkr/Eng | Sub Eng [ITA Transfer]

Безсоння / Insomnia (2002) Remux 1080p 3xUkr/Eng | Sub Eng [ITA Transfer]


Жанр: кримінальний, детектив, трилер
Країна: США , Канада
Кінокомпанія: Alcon Entertainment, Witt/Thomas Productions, Section Eight
Режисер: Крiстофер Нолан / Christopher Nolan
Актори: Аль Пачіно / Al Pacino, Робін Вільямс / Robin Williams, Гіларі Свенк / Hilary Swank, Мартін Донован / Martin Donovan, Олівер «Олі» Замен / Oliver «Ole» Zemen, Пол Дулі / Paul Dooley, Ніккі Кетт / Nicky Katt, Ларрі Голден / Larry Holden, Джей Бразо / Jay Brazeau, Лорні Кардінал / Lorne Cardinal

Сюжет:
На Аляску в період білих ночей в одне тихе містечко з енергійного Лос-Анджелеса прибувають двоє детективів - досвідчений Вілл Дормер і його напарник Геп Екгарт. Разом з місцевою представницею закону, молодою ентузіасткою Еллі Бйор, вони покликані розкрити вбивство 17-річної школярки, що сколихнуло всю округу. Еллі у всьому рівняєтся на Дормера, вивчила його минулі справи, і навіть не підозрює, що зараз він з Гепом поглинений думками про те, як би "відмазатися" від відділу внутрішніх розслідувань, що копає їх минуле.

Тривалість: 01:58:27
Якість: Remux [ITA Transfer]

Відео:
кодек:
розмір кадру: 1920 x 1080
бітрейт: 25 001 кб/с

Аудіо # 1:
мова: українська
озвучення: багатоголосе закадрове
кодек: AC-3 2.0
бітрейт: 192 кб/с

Аудіо # 2:
мова: українська
озвучення: багатоголосе закадрове ,
кодек: AC-3 2.0
бітрейт: 192 кб/с

Аудіо # 3:
мова: українська
озвучення: двоголосе закадрове | Олег Стальчук і Наталя Поліщук
кодек: AC-3 2.0
бітрейт: 192 кб/с

Аудіо # 4:
мова: англійська
озвучення: оригінал
кодек: -HD MA 5.1
бітрейт: 1879 кб/с

Аудіо # 5:
мова: англійська
озвучення: Commentary with director Christopher Nolan
кодек: AC-3 2.0
бітрейт: 192 кб/с

Аудіо # 6:
мова: англійська
озвучення: Scene-specific commentary with actress Hilary Swank, screenwriter Hillary Seitz, director of photography Wally Pfister, production designer Nathan Crowley, and editor Dody Dorn
кодек: AC-3 2.0
бітрейт: 192 кб/с

Субтитри # 1-4: (Full, SDH, SDH-Colored)
мова: англійська
тип: програмні (м'які), пререндерні
формат: *.srt, *.pgs


Інформація про файл
Код:
General
Unique ID                                : 69054817087667042148456001912953261985 (0x33F379584849B4DDCA560D7DC58A4FA1)
Complete name                            : Insomnia (2002) [ITA Transfer] Remux 1080p [3xUKR_ENG] [Hurtom].
Format                                   :
Format version                           : Version 4
File size                                : 23.0 GiB
Duration                                 : 1 h 58 min
Overall bit rate mode                    : Variable
Overall bit rate                         : 27.9 Mb/s
Movie name                               : Безсоння / Insomnia (2002)
Encoded date                             : UTC 2020-12-06 22:47:41
Writing application                      : v20.0.0 ('I Am The Sun') 64-bit
Writing library                          : libebml v1.3.5 + v1.4.8
Cover                                    : Yes
Attachments                              : Cover.jpg

Video
ID                                       : 1
Format                                   : AVC
Format/Info                              : Advanced Video Codec
Format profile                           : [email protected]
Format settings                          : CABAC / 4 Ref Frames
Format settings, CABAC                   : Yes
Format settings, Reference frames        : 4 frames
Codec ID                                 : V_MPEG4/ISO/AVC
Duration                                 : 1 h 58 min
Bit rate mode                            : Variable
Bit rate                                 : 25.0 Mb/s
Maximum bit rate                         : 36.0 Mb/s
Width                                    : 1 920 pixels
Height                                   : 1 080 pixels
Display aspect ratio                     : 16:9
Frame rate mode                          : Constant
Frame rate                               : 23.976 (24000/1001) FPS
Standard                                 : NTSC
Color space                              : YUV
Chroma subsampling                       : 4:2:0
Bit depth                                : 8 bits
Scan type                                : Progressive
Bits/(Pixel*Frame)                       : 0.503
Stream size                              : 20.7 GiB (90%)
Title                                    : Безсоння / Insomnia (2002)
Language                                 : English
Default                                  : Yes
Forced                                   : No
Color range                              : Limited
Color primaries                          : BT.709
Transfer characteristics                 : BT.709
Matrix coefficients                      : BT.709

Audio #1
ID                                       : 2
Format                                   : AC-3
Format/Info                              : Audio Coding 3
Commercial name                          : Dolby Digital
Codec ID                                 : A_AC3
Duration                                 : 1 h 58 min
Bit rate mode                            : Constant
Bit rate                                 : 192 kb/s
Channel(s)                               : 2 channels
Channel layout                           : L R
Sampling rate                            : 48.0 kHz
Frame rate                               : 31.250 FPS (1536 SPF)
Compression mode                         : Lossy
Stream size                              : 162 MiB (1%)
Title                                    : AC-3 / 2.0 Ch / 192 kbps / MVO / 1+1
Language                                 : Ukrainian
Service kind                             : Complete Main
Default                                  : Yes
Forced                                   : Yes

Audio #2
ID                                       : 3
Format                                   : AC-3
Format/Info                              : Audio Coding 3
Commercial name                          : Dolby Digital
Codec ID                                 : A_AC3
Duration                                 : 1 h 58 min
Bit rate mode                            : Constant
Bit rate                                 : 192 kb/s
Channel(s)                               : 2 channels
Channel layout                           : L R
Sampling rate                            : 48.0 kHz
Frame rate                               : 31.250 FPS (1536 SPF)
Compression mode                         : Lossy
Stream size                              : 162 MiB (1%)
Title                                    : AC-3 / 2.0 Ch / 192 kbps / MVO / Канал Україна, NLO
Language                                 : Ukrainian
Service kind                             : Complete Main
Default                                  : No
Forced                                   : No

Audio #3
ID                                       : 4
Format                                   : AC-3
Format/Info                              : Audio Coding 3
Commercial name                          : Dolby Digital
Codec ID                                 : A_AC3
Duration                                 : 1 h 58 min
Bit rate mode                            : Constant
Bit rate                                 : 192 kb/s
Channel(s)                               : 2 channels
Channel layout                           : L R
Sampling rate                            : 48.0 kHz
Frame rate                               : 31.250 FPS (1536 SPF)
Compression mode                         : Lossy
Stream size                              : 162 MiB (1%)
Title                                    : AC-3 / 2.0 Ch / 192 kbps / DVO / Олег Стальчук і Наталя Поліщук
Language                                 : Ukrainian
Service kind                             : Complete Main
Default                                  : No
Forced                                   : No

Audio #4
ID                                       : 5
Format                                   : XLL
Format/Info                              : Digital Theater Systems
Commercial name                          : -HD Master Audio
Codec ID                                 : A_DTS
Duration                                 : 1 h 58 min
Bit rate mode                            : Variable
Bit rate                                 : 1 877 kb/s
Channel(s)                               : 6 channels
Channel layout                           : C L R Ls Rs LFE
Sampling rate                            : 48.0 kHz
Frame rate                               : 93.750 FPS (512 SPF)
Bit depth                                : 16 bits
Compression mode                         : Lossless
Stream size                              : 1.55 GiB (7%)
Title                                    : -HD MA / 5.1 Ch / 1877 kbps / Original
Language                                 : English
Default                                  : No
Forced                                   : No

Audio #5
ID                                       : 6
Format                                   : AC-3
Format/Info                              : Audio Coding 3
Commercial name                          : Dolby Digital
Codec ID                                 : A_AC3
Duration                                 : 1 h 58 min
Bit rate mode                            : Constant
Bit rate                                 : 192 kb/s
Channel(s)                               : 2 channels
Channel layout                           : L R
Sampling rate                            : 48.0 kHz
Frame rate                               : 31.250 FPS (1536 SPF)
Compression mode                         : Lossy
Stream size                              : 163 MiB (1%)
Title                                    : AC-3 / 2.0 Ch / 192 kbps / Commentary with director Christopher Nolan
Language                                 : English
Service kind                             : Complete Main
Default                                  : No
Forced                                   : No

Audio #6
ID                                       : 7
Format                                   : AC-3
Format/Info                              : Audio Coding 3
Commercial name                          : Dolby Digital
Codec ID                                 : A_AC3
Duration                                 : 1 h 58 min
Bit rate mode                            : Constant
Bit rate                                 : 192 kb/s
Channel(s)                               : 2 channels
Channel layout                           : L R
Sampling rate                            : 48.0 kHz
Frame rate                               : 31.250 FPS (1536 SPF)
Compression mode                         : Lossy
Stream size                              : 163 MiB (1%)
Title                                    : AC-3 / 2.0 Ch / 192 kbps / Scene-specific commentary with actress Hilary Swank, screenwriter Hillary Seitz, director of photography Wally Pfister, production designer Nathan Crowley, and editor Dody Dorn
Language                                 : English
Service kind                             : Complete Main
Default                                  : No
Forced                                   : No

Text #1
ID                                       : 8
Format                                   : UTF-8
Codec ID                                 : S_TEXT/UTF8
Codec ID/Info                            : UTF-8 Plain Text
Duration                                 : 1 h 48 min
Bit rate                                 : 54 b/s
Count of elements                        : 1097
Stream size                              : 43.2 KiB (0%)
Title                                    : Full
Language                                 : English
Default                                  : No
Forced                                   : No

Text #2
ID                                       : 9
Format                                   : UTF-8
Codec ID                                 : S_TEXT/UTF8
Codec ID/Info                            : UTF-8 Plain Text
Duration                                 : 1 h 55 min
Bit rate                                 : 53 b/s
Count of elements                        : 1212
Stream size                              : 45.0 KiB (0%)
Title                                    : SDH
Language                                 : English
Default                                  : No
Forced                                   : No

Text #3
ID                                       : 10
Format                                   : PGS
Muxing mode                              : zlib
Codec ID                                 : S_HDMV/PGS
Codec ID/Info                            : Picture based subtitle format used on BDs/HD-DVDs
Duration                                 : 1 h 55 min
Bit rate                                 : 31.3 kb/s
Count of elements                        : 2426
Stream size                              : 25.8 MiB (0%)
Title                                    : SDH
Language                                 : English
Default                                  : No
Forced                                   : No

Text #4
ID                                       : 11
Format                                   : UTF-8
Codec ID                                 : S_TEXT/UTF8
Codec ID/Info                            : UTF-8 Plain Text
Duration                                 : 1 h 49 min
Bit rate                                 : 64 b/s
Count of elements                        : 1211
Stream size                              : 51.6 KiB (0%)
Title                                    : SDH-Colored
Language                                 : English
Default                                  : No
Forced                                   : No

Menu
00:00:00.000                             : en:Credits
00:03:00.954                             : en:Welcome To Nightmute
00:06:26.698                             : en:Crossing The Line
00:10:17.846                             : en:An Admirer
00:12:48.329                             : en:House Of Cards
00:16:35.139                             : en:Randys Act
00:21:50.454                             : en:Kay's Things
00:23:55.704                             : en:Chasing The Suspect
00:27:11.567                             : en:Man Down
00:31:45.005                             : en:Calling Trish
00:35:09.056                             : en:Sleepless
00:37:51.581                             : en:Crime Scene
00:41:26.546                             : en:Bullet For Bullet
00:46:11.205                             : en:No Rest
00:48:56.287                             : en:"I Saw You Shoot Your Partner."
00:51:25.436                             : en:Her Best Friend
00:56:57.184                             : en:On Finch's Trail
01:01:23.575                             : en:Across The Logjam
01:04:18.625                             : en:Hinding Place
01:06:47.732                             : en:Ferry Meeting
01:11:56.457                             : en:Wild Card
01:15:03.978                             : en:Shared Secret
01:19:50.180                             : en:Questioning Finch
01:25:48.455                             : en:Just In Time
01:29:27.674                             : en:Tainted Forever
01:34:15.295                             : en:Feeling For Truth
01:37:01.544                             : en:Justifies The Means
01:42:52.770                             : en:To The Beach House
01:46:18.225                             : en:I Don't Know Anymore
01:49:07.728                             : en:Don't Lose Your Way
01:54:09.738                             : en:End Credits
Світлини




Джерело: &
Особиста оцінка: 10 - без зайвих вагань рекомендую всім!


Золотий реліз (завантажене не впливає на рейтинг)
 Трекер:    Зареєстрований   

Завантажити / скачати фільм українською



відео для новачків



 Зареєстрований:   2020-12-07 01:06
 Розмір:   23.05 GB 
 Оцінка фільму:   10/10 (Голосів: 4)
   
Інші релізи
   Безсоння / Insomnia (2002) AVC 3xUkr/Eng | Sub Eng [ITA Transfer] -Star-Lord-  5 / 0   3.37 GB   2020-12-15 20:59 
   Безсоння / Insomnia (2002) 1080p H.265 3xUkr/Eng | Sub Eng [ITA Transfer] -Star-Lord-  7 / 0   9.12 GB   2020-12-15 19:37 
   Безсоння / Insomnia (2002) 1080p 3xUkr/Eng | Sub Eng staf777  12 / 0   12.78 GB   2019-12-18 14:11 
   Безсоння / Insomnia (2002) AVC 3xUkr/Eng | Sub Eng Patriot_ukr  17 / 0   2.33 GB   2019-12-17 19:17 
   Безсоння / Insomnia (2002) [MP4, 640x] apvAltisimo  0 / 0   788 MB   2017-03-06 14:39 
   Безсоння / Insomnia (2002) 720p 3xUkr/Eng | Sub Eng Dim-ON  9 / 0   5.45 GB   2014-06-01 14:08 
   Безсоння / Insomnia (2002) 3xUkr/Eng | Sub Eng karvai0  4 / 1   2.5 GB   2014-02-09 23:18 
clavaykraini 
Свій


З нами з: 16.05.14
Востаннє: 24.01.21
Повідомлень: 126

2020-12-07 03:44  
ITA Transfer - це гуд 👌, ексклюзив від Anonymous (ще б назвалися 😎)
georgehoose 
Новенький


З нами з: 02.09.14
Востаннє: 24.01.21
Повідомлень: 4

2020-12-17 21:01  
Прохання до сідерів залишатись на роздачі якомого довше, тут мінімум пятеро чоловік не можуть добити фільм, особисто я застряг на 90%.
PolarKieV 
Новенький


З нами з: 15.05.10
Востаннє: 24.01.21
Повідомлень: 12

2021-01-11 13:23  
Шкода, але сідери чомусь не повертаються...
Цікаво бачити автора релізу у переліку тих, хто завантажив на 90% Happy

Anonymous 







2021-01-11 14:34  
PolarKieV
На жаль, ремукса у мене не збереглося...

Ваш часовий пояс: GMT + 2 Години

Нова тема   Відповісти