Невідома Південна Америка / Wild South America (2000) DVDRemux 576i PAL Ukr/Eng | Sub Eng

Нові коментарі

Нова тема   Відповісти
Автор Повідомлення
Python_3.2 
Поважний учасник


З нами з: 28.12.12
Востаннє: 14.04.21
Повідомлень: 183

2020-12-06 16:14  
Невідома Південна Америка / Wild South America (2000) DVDRemux 576i PAL Ukr/Eng | Sub Eng

Невідома Південна Америка / Wild South America (2000) DVDRemux 576i PAL Ukr/Eng | Sub Eng

Оригінальний постер


Жанр: документальний, природничий
Країна: Великобританія

Телеканал / кіностудія: BBC
Продюсерка: Карен Басс [Karen Bass]
Оповідач: Фергал Кін [Fergal Keane]
Оператор: Роберт Фултон [Robert Fulton]
Композитор: Ніколас Гупер [Nicholas Hooper]

Сюжет:
Від Антарктики до екватора, від теплих морів до блискучих гірських вершин, документальний серіал "Південна Америка" у всій красі покаже вам простори загадкового південно-американського континенту. Саме тут протікає відома всім річка Амазонка, прихована від сторонніх очей непрохідними хащами та вабить найбільших мандрівників і авантюристів усього світу. Адже до сьогоднішнього дня людству не вдалося розкрити всіх таємниць амазонських джунглів, велика частина яких залишається недослідженою. Саме в Південній Америці розташована найдовша гірська система - гори Анди - територія з безліччю діючих вулканів, які час від часу викидають лаву і вулканічний попіл, а також розпечена пустеля Атакама - одне з найбільш посушливих місць нашої планети. Щоб показати всю цю красу над фільмом працювала висококласна група операторів, озброєна найкращою технікою на момент зйомки, це дозволить вам повною мірою насолодитися красою південно-американського континенту і проникнути в саме серце материка.
Перелік серій
  • 01. Втрачені світи / Lost Worlds [48:52]
  • 02. Могутня Амазонка / Mighty Amazon [49:09]
  • 03. Великі рівнини / Great Plains [49:03]
  • 04. Анди / Andes [48:59]
  • 05. Амазонські джунглі / Amazon Jungle [49:10]
  • 06. Узбережжя пінгвінів / Penguin Shores [48:58]
Тривалість: 1 серія: ~ 48:00 (цілком серій: 6)
Якість: DVDRemux [2xDVD9]
Відео:
кодек: MPEG-2 DVD
розмір кадру: 720 х 576
бітрейт: 5700 кб/с

Аудіо # 1:
мова: українська
переклад: одноголосий закадровий
кодек: 2.0
бітрейт: 192 кб/с
примітка: в 3 серії Мега неозвучений шматок з 22:23 по 23:35.

Аудіо # 2:
мова: англійська
переклад: оригінал
кодек: 5.1
бітрейт: 448 кб/с

Аудіо # 3:
мова: англійська
переклад: оригінал
кодек: 2.0
бітрейт: 192 кб/с

Субтитри:
мова: українська (форсовані)
переклад: любительський переклад
тип: програмні (м'які)
формат: *.srt
примітка: до неозвученого шматка в 3-й серії з 22:23 по 23:35

Субтитри:
мова: англійська
тип: програмні (м'які)
формат: *.srt
Info
Код:
General
Unique ID                                : 44963548881439127822621798826926566455 (0x21D3AA1DF602D1F11609C0AA842E6C37)
Complete name                            : /media/amd64ryzen/WD18TB/Toloka/T_Doc/TD_Nature/TDN_MQ/Wild South America (2000) DVDRemux 576i [UKR_ENG] [sub ENG] [Hurtom]/Wild South America E01 Lost Worlds (2000) DVDRemux 576i PAL [UKR_ENG] [sub ENG] [Hurtom].
Format                                   :
Format version                           : Version 4
File size                                : 2.23 GiB
Duration                                 : 48 min 52 s
Overall bit rate mode                    : Variable
Overall bit rate                         : 6 540 kb/s
Movie name                               : Невідома Південна Америка Е01 Втрачені світи / Wild South America E01 Lost Worlds (2000) DVDRemux 576i PAL [UKR_ENG] [sub ENG] [Hurtom]
Encoded date                             : UTC 2020-12-05 16:52:56
Writing application                      : v51.0.0 ('I Wish') 64-bit
Writing library                          : libebml v1.4.0 + v1.6.2
Cover                                    : Yes
Attachments                              : cover.jpg / Wild South America - Andes to Amazon (2000) poster [ENG].jpg / Wild South America - Andes to Amazon (2000) poster [UKR].jpg

Video
ID                                       : 1
ID in the original source medium         : 224 (0xE0)
Format                                   : MPEG Video
Format version                           : Version 2
Format profile                           : [email protected]
Format settings                          : CustomMatrix / BVOP
Format settings, BVOP                    : Yes
Format settings, Matrix                  : Custom
Format settings, GOP                     : Variable
Format settings, picture structure       : Frame
Codec ID                                 : V_MPEG2
Codec ID/Info                            : MPEG 1 or 2 Video
Duration                                 : 48 min 52 s
Bit rate mode                            : Variable
Bit rate                                 : 5 700 kb/s
Maximum bit rate                         : 8 700 kb/s
Width                                    : 720 pixels
Height                                   : 576 pixels
Display aspect ratio                     : 16:9
Frame rate mode                          : Constant
Frame rate                               : 25.000 FPS
Standard                                 : PAL
Color space                              : YUV
Chroma subsampling                       : 4:2:0
Bit depth                                : 8 bits
Scan type                                : Interlaced
Scan order                               : Top Field First
Compression mode                         : Lossy
Bits/(Pixel*Frame)                       : 0.550
Time code of first frame                 : 09:59:59:10
Time code source                         : Group of pictures header
Stream size                              : 1.95 GiB (87%)
Title                                    : MPEG-2, PAL, 720x576i, 5700 kb/s, 25 fps, 16:9, [email protected], 4:2:0, 8-bit
Language                                 : English
Default                                  : Yes
Forced                                   : No
Original source medium                   : DVD-Video

Audio #1
ID                                       : 2
Format                                   : AC-3
Format/Info                              : Audio Coding 3
Commercial name                          : Dolby Digital
Codec ID                                 : A_AC3
Duration                                 : 48 min 52 s
Bit rate mode                            : Constant
Bit rate                                 : 192 kb/s
Channel(s)                               : 2 channels
Channel layout                           : L R
Sampling rate                            : 48.0 kHz
Frame rate                               : 31.250 FPS (1536 SPF)
Compression mode                         : Lossy
Stream size                              : 67.1 MiB (3%)
Title                                    : Українська, телеканал Мега, одноголосе озвучення, AC-3, mono 2.0, 192 kb/s, 48.0 kHz
Language                                 : Ukrainian
Service kind                             : Complete Main
Default                                  : Yes
Forced                                   : No

Audio #2
ID                                       : 3
ID in the original source medium         : 189 (0xBD)128 (0x80)
Format                                   : AC-3
Format/Info                              : Audio Coding 3
Commercial name                          : Dolby Digital
Codec ID                                 : A_AC3
Duration                                 : 48 min 52 s
Bit rate mode                            : Constant
Bit rate                                 : 448 kb/s
Channel(s)                               : 6 channels
Channel layout                           : L R C LFE Ls Rs
Sampling rate                            : 48.0 kHz
Frame rate                               : 31.250 FPS (1536 SPF)
Compression mode                         : Lossy
Stream size                              : 157 MiB (7%)
Title                                    : English, original, AC-3, surround 5.1, 448 kb/s, 48.0 kHz
Language                                 : English
Service kind                             : Complete Main
Default                                  : No
Forced                                   : No
Original source medium                   : DVD-Video

Audio #3
ID                                       : 4
Format                                   : AC-3
Format/Info                              : Audio Coding 3
Commercial name                          : Dolby Digital
Codec ID                                 : A_AC3
Duration                                 : 48 min 52 s
Bit rate mode                            : Constant
Bit rate                                 : 192 kb/s
Channel(s)                               : 2 channels
Channel layout                           : L R
Sampling rate                            : 48.0 kHz
Frame rate                               : 31.250 FPS (1536 SPF)
Compression mode                         : Lossy
Stream size                              : 67.1 MiB (3%)
Title                                    : English, original, AC-3, stereo 2.0, 192 kb/s, 48.0 kHz
Language                                 : English
Service kind                             : Complete Main
Default                                  : No
Forced                                   : No

Text
ID                                       : 5
Format                                   : UTF-8
Codec ID                                 : S_TEXT/UTF8
Codec ID/Info                            : UTF-8 Plain Text
Duration                                 : 47 min 10 s
Bit rate                                 : 54 b/s
Count of elements                        : 432
Stream size                              : 18.9 KiB (0%)
Title                                    : English, original, Full, SRT, UTF-8
Language                                 : English
Default                                  : No
Forced                                   : No

Menu
00:00:00.000                             : en:Chapter 01
00:10:57.160                             : en:Chapter 02
00:20:03.920                             : en:Chapter 03
00:30:08.240                             : en:Chapter 04
00:39:27.040                             : en:Chapter 05

Скріншоти









Подяки
пану Nahalist за ідею та опис до релізу
пану karvai0 за підготовлений попередній реліз
пану п. zevsisver за сирий звук і пану Gelios за українізований постер.

Джерело: &
Особиста оцінка: 10 - без зайвих вагань рекомендую всім!


Срібний реліз (на рейтинг впливає 50% завантаженого)
 Трекер:    Зареєстрований   

Завантажити / скачати торрент



відео для новачків



 Зареєстрований:   2020-12-06 16:14
 Розмір:   13.44 GB 
 Оцінка:   10/10 (Голосів: 6)
   
kostyatest 
Свій


З нами з: 01.02.18
Востаннє: 14.04.21
Повідомлень: 70

2020-12-06 16:25  
Найбільший, найдовша, найдовший ... срср та молоко?
Python_3.2 
Поважний учасник


З нами з: 28.12.12
Востаннє: 14.04.21
Повідомлень: 183

2020-12-06 17:08  
kostyatest
Wide grin
Розумію, але я геть не вмію робити грані описи, тож повторюю готове.
Та й опис досить схожий на те що написано на ІМДБ
свого не вигадував Happy

Graviller123 
Свій


З нами з: 26.08.15
Востаннє: 04.04.21
Повідомлень: 102

2020-12-08 12:55  
супер, та тут же не 720*576, я думав тут реально 4:3, тут виявилось 16:9, це клас, дякую, ще будуть документалки від Вас??
Purdun 
Свій


З нами з: 05.09.13
Востаннє: 20.03.21
Повідомлень: 136

2020-12-09 19:08  
Велика дяка! Класне, особливо серія "Анди"
kostyatest 
Свій


З нами з: 01.02.18
Востаннє: 14.04.21
Повідомлень: 70

2020-12-09 23:28  
Python_3.2
опис, що зараз, чарує (навіть змушує подивитись)
:-)

Python_3.2 
Поважний учасник


З нами з: 28.12.12
Востаннє: 14.04.21
Повідомлень: 183

2020-12-10 01:32  
Graviller123 написано:
супер, та тут же не 720*576, я думав тут реально 4:3, тут виявилось 16:9

я також спіткнувся об цю "невідповідність" коли робив Happy
Але якщо подивитись в медіа інфо, то там якраз саме такий розмір і співвідношення 16:9
Цитата:
Код:
Width                                    : 720 pixels
Height                                   : 576 pixels
Display aspect ratio                     : 16:9

Такі ж самі параметри були і на диску
А коли я змінював на 4:3, то все одно воно дописували що Original display aspect ratio : 16:9
Як я вичитав для DVD така хитрість у певних форматах застосовувалась.
Я правда до кінця не зрозумів як воно там працює. Пізніше буде час розбирусь.
Головне, що все як в оригіналі Happy

Graviller123 написано:
ще будуть документалки від Вас??

Так. Уже працюю.
Поки можете глянуть решту з мої, яких може ще не бачили. Сподіваюсь також сподобаються Rolleyes (1)

Додано через 4 хвилини 13 секунд:

kostyatest
Це приємно чути
Це пан Nahalist написав
Йому подяка Happy
Та й власне ідея цього релізу також його

Додано через 3 хвилини 8 секунд:

Дописав його у подяках Happy

Додано через 1 хвилину 2 секунди:

Purdun
Спасибі і вам
Гарні відгуки надихають робити далі))

Luzohid 
Свій


З нами з: 14.09.15
Востаннє: 16.03.21
Повідомлень: 106

2020-12-10 20:24  
І я дякую, файне, я дивлюся на великому ТВ - класно, батьки і друзі теж більше полюбляють документальне, а ніж художнє!!
Стосовно "..коли я змінював на 4:3, то все одно воно дописували що Original display aspect ratio : 16:9.." - Записи з ТБ через Т2 теж 720*576, точніше так пише відеоконвертер, коли конвертуєш, а коли поставити -зберегти оригінал розміру кадру після кодування- ТО на виході файл 16:9 1024*576 ДИВИНА!

Ваш часовий пояс: GMT + 2 Години

Нова тема   Відповісти