Тенет / Tenet (2020) UHD Remux 4K 2160p HDR H.265 Ukr/Eng | Sub Eng

Нові коментарі

Нова тема   Відповісти
Автор Повідомлення
RoMeL 
Відео Гуртом - підтримка та поширення
Відео Гуртом - підтримка та поширення


З нами з: 09.07.08
Востаннє: 15.01.21
Повідомлень: 315

2020-12-05 16:26  
Тенет / Tenet (2020) UHD Remux 4K 2160p HDR H.265 Ukr/Eng | Sub Eng



Жанр: бойовик, драма, фантастика, трилер
Країна: США



Кінокомпанія: Warner Bros. Pictures Syncopy Inc.
Режисер: Крістофер Нолан
Актори: Джон Девід Вашингтон, Роберт Паттінсон, Елізабет Дебікі, Кеннет Брана, Аарон Тейлор-Джонсон, Майкл Кейн

Сюжет:
Озброєний єдиним словом — Тенет — головний герой бореться за виживання усього світу. Він подорожує оповитим сутінками світом міжнародного шпигунства з єдиною місією, яка розгорнеться за межами реального часу. Це не подорож крізь час. Це інверсія.


Тривалість: 02:30:09
Якість: Remux 4K 2160p HDR H.265
Відео:
кодек: H.265 (HEVC)
розмір кадру: 3840 х 2160
бітрейт: 57,5 Мбіт/сек
бітова глибина: 10 біт
кольоровий простір: BT.2020 (HDR)

Увага! Перед завантаженням переконайтесь, що ваш пристрій відтворення (та/або ПЗ) підтримує H.265 (HEVC)

Аудіо # 1:
мова: українська
переклад: професійний дубльований
кодек: 5.1
бітрейт: 384 кб/с

Аудіо # 2:
мова: англійська
переклад: оригінал
кодек: -HD MA 5.1
бітрейт: 4036 кб/с

Аудіо # 3:
мова: англійська
переклад: оригінал
кодек: 5.1
бітрейт: 640 кб/с

Субтитри:
мова: англійська
тип: пререндерені
формат: *.pgs
Info
Код:
General
Unique ID                                : 274782177674719312045075097006706600181 (0xCEB91F56B48D34CED886B974670528F5)
Complete name                            : /Volumes/Download/Movies/Tenet.2020.Remux.2160p.HDR.[Ukr.Eng].
Format                                   :
Format version                           : Version 4
File size                                : 65.6 GiB
Duration                                 : 2 h 30 min
Overall bit rate mode                    : Variable
Overall bit rate                         : 62.5 Mb/s
Movie name                               : Tenet.2020.Remux.2160p.HDR.[Ukr.Eng]
Encoded date                             : UTC 2020-12-15 02:30:58
Writing application                      : v51.0.0 ('I Wish') 64-bit
Writing library                          : libebml v1.4.0 + v1.6.2
Cover                                    : Yes
Attachments                              : cover.jpg

Video
ID                                       : 1
Format                                   : HEVC
Format/Info                              : High Efficiency Video Coding
Format profile                           : Main [email protected]@High
HDR format                               : SMPTE ST 2086, HDR10 compatible
Codec ID                                 : V_MPEGH/ISO/HEVC
Duration                                 : 2 h 30 min
Bit rate                                 : 57.5 Mb/s
Width                                    : 3 840 pixels
Height                                   : 2 160 pixels
Display aspect ratio                     : 16:9
Frame rate mode                          : Constant
Frame rate                               : 23.976 (24000/1001) FPS
Color space                              : YUV
Chroma subsampling                       : 4:2:0 (Type 2)
Bit depth                                : 10 bits
Bits/(Pixel*Frame)                       : 0.289
Stream size                              : 60.3 GiB (92%)
Language                                 : English
Default                                  : Yes
Forced                                   : No
Color range                              : Limited
Color primaries                          : BT.2020
Transfer characteristics                 : PQ
Matrix coefficients                      : BT.2020 non-constant
Mastering display color primaries        : Display P3
Mastering display luminance              : min: 0.0050 cd/m2, max: 4000 cd/m2
Maximum Content Light Level              : 349 cd/m2
Maximum Frame-Average Light Level        : 86 cd/m2

Audio #1
ID                                       : 2
Format                                   : AC-3
Format/Info                              : Audio Coding 3
Commercial name                          : Dolby Digital
Codec ID                                 : A_AC3
Duration                                 : 2 h 30 min
Bit rate mode                            : Constant
Bit rate                                 : 384 kb/s
Channel(s)                               : 6 channels
Channel layout                           : L R C LFE Ls Rs
Sampling rate                            : 48.0 kHz
Frame rate                               : 31.250 FPS (1536 SPF)
Compression mode                         : Lossy
Delay relative to video                  : 1 s 0 ms
Stream size                              : 412 MiB (1%)
Title                                    : Ukrainian 5.1 384 kb/s
Language                                 : Ukrainian
Service kind                             : Complete Main
Default                                  : Yes
Forced                                   : No

Audio #2
ID                                       : 3
Format                                   : XLL
Format/Info                              : Digital Theater Systems
Commercial name                          : -HD Master Audio
Codec ID                                 : A_DTS
Duration                                 : 2 h 30 min
Bit rate mode                            : Variable
Bit rate                                 : 4 036 kb/s
Channel(s)                               : 6 channels
Channel layout                           : C L R Ls Rs LFE
Sampling rate                            : 48.0 kHz
Frame rate                               : 93.750 FPS (512 SPF)
Bit depth                                : 24 bits
Compression mode                         : Lossless
Stream size                              : 4.23 GiB (6%)
Language                                 : English
Default                                  : No
Forced                                   : No

Audio #3
ID                                       : 4
Format                                   : AC-3
Format/Info                              : Audio Coding 3
Commercial name                          : Dolby Digital
Codec ID                                 : A_AC3
Duration                                 : 2 h 30 min
Bit rate mode                            : Constant
Bit rate                                 : 640 kb/s
Channel(s)                               : 6 channels
Channel layout                           : L R C LFE Ls Rs
Sampling rate                            : 48.0 kHz
Frame rate                               : 31.250 FPS (1536 SPF)
Compression mode                         : Lossy
Stream size                              : 687 MiB (1%)
Title                                    : English 5.1 640 kb/s
Language                                 : English
Service kind                             : Complete Main
Default                                  : No
Forced                                   : No

Text
ID                                       : 5
Format                                   : PGS
Muxing mode                              : zlib
Codec ID                                 : S_HDMV/PGS
Codec ID/Info                            : Picture based subtitle format used on BDs/HD-DVDs
Duration                                 : 2 h 26 min
Bit rate                                 : 36.4 kb/s
Count of elements                        : 4274
Stream size                              : 38.3 MiB (0%)
Title                                    : SDH
Language                                 : English
Default                                  : No
Forced                                   : No

Menu
00:00:00.000                             : en:Chapter 01
00:09:39.412                             : en:Chapter 02
00:19:30.503                             : en:Chapter 03
00:28:18.405                             : en:Chapter 04
00:38:49.369                             : en:Chapter 05
00:49:20.166                             : en:Chapter 06
01:00:33.255                             : en:Chapter 07
01:09:41.511                             : en:Chapter 08
01:22:36.410                             : en:Chapter 09
01:30:54.741                             : en:Chapter 10
01:39:40.683                             : en:Chapter 11
01:51:02.322                             : en:Chapter 12
01:59:40.799                             : en:Chapter 13
02:11:42.853                             : en:Chapter 14
02:19:07.089                             : en:Chapter 15
Скріншоти











Джерело:
Особиста оцінка: 10 - без зайвих вагань рекомендую всім!


Золотий реліз (завантажене не впливає на рейтинг)
 Трекер:    Зареєстрований   

Завантажити / скачати фільм українською



відео для новачків



 Зареєстрований:   2020-12-15 08:52
 Розмір:   65.58 GB 
 Оцінка фільму:   9.6/10 (Голосів: 30)
   
Інші релізи
   Тенет / Tenet (2020) [IMAX] 1080p H.265 Ukr/Eng | Sub Eng -Star-Lord-  48 / 0   8.68 GB   2020-12-29 01:22 
   Тенет [IMAX версія] / Tenet [IMAX Edition] (2020) AVC BASTERD-94  81 / 3   2.3 GB   2020-12-17 23:57 
   Тенет / Tenet (2020) Remux 1080p Ukr/Eng | Sub Eng [IMAX Edition] staf777  41 / 2   36.77 GB   2020-12-15 14:30 
   Тенет / Tenet [IMAX Edition] (2020) Ukr | Sub Eng antik_2008  50 / 7   2 GB   2020-12-15 13:49 
   Тенет / Tenet [IMAX Edition] (2020) AVC Ukr/Eng | Sub Eng eneyida.tv  66 / 1   3.22 GB   2020-12-15 12:43 
   Тенет / Tenet [IMAX Edition] (2020) Ukr/Eng | Sub Eng antik_2008  52 / 0   2.71 GB   2020-12-15 12:41 
   Тенет / Tenet [IMAX Edition] (2020) 720p Ukr/Eng | Sub Eng antik_2008  75 / 2   7.96 GB   2020-12-15 12:09 
   Тенет / Tenet (2020) 1080p [IMAX] Ukr/Eng | Sub Eng RoMeL  126 / 3   13.11 GB   2020-12-15 04:03 
bot 
робот


З нами з: 30.09.07
Востаннє: 26.05.05
Повідомлень: 26917

2020-12-15 08:51  
Тему перенесено з Анонси релізів до форуму Фільми в HD


RoMeL

Incredible33 
Новенький


З нами з: 14.12.14
Востаннє: 13.01.21
Повідомлень: 5

2020-12-15 11:29  
Коли рiп на 1080P?
antik_2008 
Релізер і модератор відео


З нами з: 20.10.08
Востаннє: 15.01.21
Повідомлень: 4616

2020-12-15 13:05  
RoMeL

наче теж [IMAX Edition]

Incredible33 написано:
Коли рiп на 1080P?

вже є
пошук Happy

nyH4 
Новенький


З нами з: 15.12.09
Востаннє: 15.12.20
Повідомлень: 22

2020-12-15 16:35  
Нарешті!!
Недарма 4К телевізор купував
Wide grin

RoMeL 
Відео Гуртом - підтримка та поширення
Відео Гуртом - підтримка та поширення


З нами з: 09.07.08
Востаннє: 15.01.21
Повідомлень: 315

2020-12-15 16:43  
найпопулярніший 4K реліз на Толоці Tongue up (1)
igor911 
Модератор відео


З нами з: 18.01.08
Востаннє: 15.01.21
Повідомлень: 15318

2020-12-15 17:22  
RoMeL написано:
найпопулярніший 4K реліз на Толоці Tongue up (1)

класика популярніша https://toloka.to/t102089 - 30 сідів

Додано через 1 хвилину 22 секунди:

1,5 роки релізу, фільму 20 років (!)

RoMeL 
Відео Гуртом - підтримка та поширення
Відео Гуртом - підтримка та поширення


З нами з: 09.07.08
Востаннє: 15.01.21
Повідомлень: 315

2020-12-15 19:08  
igor911
а зараз? Wide grin тут вже 34 сідів і 24 лічів

21jumpstreet 
VIP


З нами з: 03.07.12
Востаннє: 15.01.21
Повідомлень: 1609

2020-12-16 16:07  
Перший скрін найкращий!!!! Слава Україні!!!!
Kazus78 
Новенький


З нами з: 13.01.17
Востаннє: 12.01.21
Повідомлень: 15

2020-12-17 22:03  
Дякую за релізHappy
Фільм не зайшов. Нудьга якась, як на мене.

vsenkiv 
Новенький


З нами з: 08.10.15
Востаннє: 11.01.21
Повідомлень: 11

2020-12-22 19:42  
не розумію захвату від цього фільму, абсолютно прохідний фільм
waldi-hurtom 
VIP


З нами з: 07.10.12
Востаннє: 14.01.21
Повідомлень: 1245

2020-12-22 23:39  
Перепрошую, трохи не в тему, але з якої відстані треба дивитися 3840х2160? Більше метра якось і 1080p вже не видно пікселів. Принаймні, якщо намагаєшся бачити усю картинку, а не окрему волосинку на лобку. Сенс 68Гбайт у чому? Може, треба нюхнути чогось для гостроти зору...
RoMeL 
Відео Гуртом - підтримка та поширення
Відео Гуртом - підтримка та поширення


З нами з: 09.07.08
Востаннє: 15.01.21
Повідомлень: 315

2020-12-22 23:47  
waldi-hurtom
все залежить від розміру діагоналі телевізора і від власних вподобань
Ось хороша стаття на англ. https://www.rtings.com/tv/reviews/by-size/size-to-distance-relationship
Для мене наприклад оптимально є 65 дюймів діагональ і відстань до телевізора 2.7 метри

waldi-hurtom 
VIP


З нами з: 07.10.12
Востаннє: 14.01.21
Повідомлень: 1245

2020-12-23 19:48  
Але ж з оптимальної для перегляду відстані пікселі 1080p вже роздивитися неможливо! Принаймні, на моїй плазмі 42" зі 180 см їх геть не видно навіть на статичному малюнку. Тож який сенс у 4К? Не розумію! Чистої води маркетингова розводка лохів типу звука 5.1 чи 7.1 для істот, що мають лише 2 вуха. Мене трисмугові колонки з їх 6 динамиками цілком влаштовують і ніхто не доведе, що якщо ці динамики повитягати з корпусів колонок і розвісити на паличках по всій кімнаті звук стане кращім! До того ж сабвуферів в мене таки два, а не один. Власне, в цьому і полягає фінансовий інтерес - зекономити на виробництві сабвуфера і втюхати лохам, що так буде для них краще. Ну, типа, печінка в тебе лише одна - ти ж нею відчуваєш низькочастотні звуки, а не двома вухами. Ось тільки я ніц не купую з апаратури - 30 років шмалять HiFi підсилювач і колонки без особливих проблем.
f1lia 
Попереджень: 2
Попереджень: 2 


З нами з: 25.02.15
Востаннє: 15.01.21
Повідомлень: 57

2020-12-23 22:22  
Щоб зрозуміти сенс 4к і 5,1 треба побачити і почути. Ото розсмішив )))
curtdp 
Новенький


З нами з: 12.10.14
Востаннє: 15.01.21
Повідомлень: 1

2021-01-02 20:33  
Тут важливіша наявність HDR, це дає більше враження ніж 4k. HDR одразу можна побачити. Happy

Додано через 2 хвилини 34 секунди:

waldi-hurtom
Треба знайти відстань з якої ви бачите пікселі в 1080p на панелі 32", на цю відстань вставити панель 4K 64" і продовжувати перегляд Happy

0mage0 
VIP


З нами з: 06.10.15
Востаннє: 15.01.21
Повідомлень: 726

2021-01-06 14:54  
waldi-hurtom написано:
42" зі 180 см їх геть не видно навіть на статичному малюнку. Тож який сенс у 4К?

Згоден, сам купив 43 дюйми 4К тільки тому, що зі Smart TV всі були 4К. Видивляюся на екрані різницю між Full HD та 4К, поки не зміг помітити покращення Happy

Ваш часовий пояс: GMT + 2 Години

Нова тема   Відповісти