Щасливий день смерті. Дилогія / Happy Death Day. Dilogy (2017, 2019) 1080p H.265 Ukr/Eng | Sub Ukr/Eng

Нові коментарі

Нова тема   Відповісти
Автор Повідомлення
Anonymous 







2020-12-05 14:47  
Щасливий день смерті. Дилогія / Happy Death Day. Dilogy (2017, 2019) 1080p H.265 Ukr/Eng | Sub Ukr/Eng

Щасливий день смерті. Дилогія / Happy Death Day. Dilogy (2017, 2019) 1080p H.265 Ukr/Eng | Sub Ukr/Eng

1. 2.

1. Щасливий день смерті / Happy Death Day (2017) 1080p H.265 Ukr/Eng | Sub Ukr/Eng
Щасливий день смерті / Happy Death Day (2017) 1080p H.265 Ukr/Eng | Sub Ukr/Eng

Щасливий день смерті. Дилогія / Happy Death Day. Dilogy (2017, 2019) 1080p H.265 Ukr/Eng | Sub Ukr/Eng


Жанр: жахи, трилер, детектив, комедія
Країна: США
Кінокомпанія: Blumhouse Productions, Digital Riot Media, Vesuvius Productions
Режисер: Крістофер Лендон / Christopher Landon
Актори: Джессіка Рот / Jessica Rothe, Ізраель Бруссар / Israel Broussard, Рубі Модін / Ruby Modine, Роб Мелло / Rob Mello, Рейчел Меттьюз / Rachel Matthews, Біллі Слотер / Billy Slaughter, Чарльз Ейткен / Charles Aitken, Лаура Кліфтон / Laura Clifton, Фі Ву / Phi Vu, Тені Інтріаго / Tenea Intriago та інші

Сюжет:
Трі Шельбман – одна з найяскравіших студенток свого університету. У кожному навчальному закладу є така дівчина, яку знають усі. Сьогодні Трі святкує свій день народження. Кожен зі студентів універу мріє потрапити на цю вечірку, адже у такої дівчини повинна бути тільки найкрутіша туса. Ось тільки Трі не доживе до ранку – її вбиває незнайомець у масці. Але дівчина прокидається і... проживає свій день народження заново. Тепер у неї є безмежна кількість життів і стільки ж шансів вичислити свого вбивцю. Трі тепер може відкрити світ для себе по-новому. Тільки їй доведеться дуже багато вмирати, та ще й кожного разу по-різному.

Тривалість: 01:36:11
Якість:

Відео:
кодек: H.265 (HEVC)
розмір кадру: 1920 x 804
бітрейт: 4 483 кб/с
бітова глибина: 10 біт

Увага! Перед завантаженням переконайтесь, що ваш пристрій відтворення (та/або ПЗ) підтримує H.265 (HEVC)

Аудіо # 1:
мова: українська
озвучення: професійне дубльоване | Студія LeDoyen
кодек: AC-3 2.0
бітрейт: 192 кб/с

Аудіо # 2:
мова: англійська
озвучення: оригінал
кодек: 5.1
бітрейт: 1510 кб/с

Субтитри # 1-2: (Forced, Full from Netflix)
мова: українська
тип: програмні (м'які)
формат: *.srt

Субтитри # 3-5: (Full, SDH, SDH-Colored)
мова: англійська
тип: програмні (м'які)
формат: *.srt


Інформація про файл
Код:
General
Unique ID                                : 307095700075452634171391866335702164259 (0xE7087AFF374DC6EF2665113A8F022323)
Complete name                            : 1. Happy Death Day (2017) 1080p H.265 [UKR_ENG] [Hurtom].
Format                                   :
Format version                           : Version 4
File size                                : 4.16 GiB
Duration                                 : 1 h 36 min
Overall bit rate                         : 6 186 kb/s
Movie name                               : Щасливий день смерті / Happy Death Day (2017)
Encoded date                             : UTC 2020-12-05 12:31:29
Writing application                      : v20.0.0 ('I Am The Sun') 64-bit
Writing library                          : libebml v1.3.5 + v1.4.8
Cover                                    : Yes
Attachments                              : cover

Video
ID                                       : 1
Format                                   : HEVC
Format/Info                              : High Efficiency Video Coding
Format profile                           : Main [email protected]@High
Codec ID                                 : V_MPEGH/ISO/HEVC
Duration                                 : 1 h 36 min
Bit rate                                 : 4 483 kb/s
Width                                    : 1 920 pixels
Height                                   : 804 pixels
Display aspect ratio                     : 2.40:1
Frame rate mode                          : Constant
Frame rate                               : 23.976 (24000/1001) FPS
Color space                              : YUV
Chroma subsampling                       : 4:2:0
Bit depth                                : 10 bits
Bits/(Pixel*Frame)                       : 0.121
Stream size                              : 3.01 GiB (72%)
Title                                    : Щасливий день смерті / Happy Death Day (2017)
Writing library                          : x265 2.6+22-ff02513b92c0:[Windows][GCC 7.2.0][64 bit] 10bit
Encoding settings                        : cpuid=1173503 / frame-threads=4 / numa-pools=16 / wpp / no-pmode / no-pme / no-psnr / no-ssim / log-level=2 / input-csp=1 / input-res=1920x804 / interlace=0 / total-frames=0 / level-idc=41 / high-tier=1 / uhd-bd=0 / ref=5 / no-allow-non-conformance / no-repeat-headers / annexb / no-aud / no-hrd / info / hash=0 / no-temporal-layers / open-gop / min-keyint=23 / keyint=240 / gop-lookahead=0 / bframes=8 / b-adapt=2 / no-b-pyramid / bframe-bias=0 / rc-lookahead=60 / lookahead-slices=4 / scenecut=40 / radl=0 / no-intra-refresh / ctu=64 / min-cu-size=8 / rect / amp / max-tu-size=32 / tu-inter-depth=4 / tu-intra-depth=4 / limit-tu=1 / rdoq-level=2 / dynamic-rd=0.00 / no-ssim-rd / signhide / no-tskip / nr-intra=0 / nr-inter=0 / no-constrained-intra / no-strong-intra-smoothing / max-merge=3 / limit-refs=3 / limit-modes / me=3 / subme=7 / merange=57 / temporal-mvp / weightp / weightb / no-analyze-src-pics / deblock=-3:-3 / no-sao / no-sao-non-deblock / rd=6 / no-early-skip / no-rskip / no-fast-intra / no-tskip-fast / no-cu-lossless / b-intra / no-splitrd-skip / rdpenalty=0 / psy-rd=2.00 / psy-rdoq=1.00 / no-rd-refine / no-lossless / cbqpoffs=0 / crqpoffs=0 / rc=crf / crf=18.0 / qcomp=0.60 / qpstep=4 / stats-write=0 / stats-read=0 / vbv-maxrate=50000 / vbv-bufsize=50000 / vbv-init=0.9 / crf-max=0.0 / crf-min=0.0 / ipratio=1.40 / pbratio=1.30 / aq-mode=1 / aq-strength=1.00 / cutree / zone-count=1 / zones: / start-frame=132101 / end-frame=138375 / qp=35 / no-strict-cbr / qg-size=32 / no-rc-grain / qpmax=69 / qpmin=0 / no-const-vbv / sar=1 / overscan=0 / videoformat=5 / range=0 / colorprim=2 / transfer=2 / colormatrix=1 / chromaloc=0 / display-window=0 / max-cll=0,0 / min-luma=0 / max-luma=1023 / log2-max-poc-lsb=8 / vui-timing-info / vui-hrd-info / slices=1 / opt-qp-pps / opt-ref-list-length-pps / no-multi-pass-opt-rps / scenecut-bias=0.05 / no-opt-cu-delta-qp / no-aq-motion / no-hdr / no-hdr-opt / no-dhdr10-opt / analysis-save=(null) / analysis-load=(null) / analysis-reuse-level=5 / scale-factor=0 / refine-intra=0 / refine-inter=0 / refine-mv=0 / no-limit-sao / ctu-info=0 / no-lowpass-dct / refine-mv-type=0 / copy-pic=1
Language                                 : English
Default                                  : Yes
Forced                                   : Yes
Color range                              : Limited
Matrix coefficients                      : BT.709

Audio #1
ID                                       : 2
Format                                   : AC-3
Format/Info                              : Audio Coding 3
Commercial name                          : Dolby Digital
Codec ID                                 : A_AC3
Duration                                 : 1 h 36 min
Bit rate mode                            : Constant
Bit rate                                 : 192 kb/s
Channel(s)                               : 2 channels
Channel layout                           : L R
Sampling rate                            : 48.0 kHz
Frame rate                               : 31.250 FPS (1536 SPF)
Compression mode                         : Lossy
Stream size                              : 132 MiB (3%)
Title                                    : AC-3 / 2.0 Ch / 192 kbps / DUB / Студія LeDoyen
Language                                 : Ukrainian
Service kind                             : Complete Main
Default                                  : Yes
Forced                                   : Yes

Audio #2
ID                                       : 3
Format                                   :
Format/Info                              : Digital Theater Systems
Codec ID                                 : A_DTS
Duration                                 : 1 h 36 min
Bit rate mode                            : Constant
Bit rate                                 : 1 509 kb/s
Channel(s)                               : 6 channels
Channel layout                           : C L R Ls Rs LFE
Sampling rate                            : 48.0 kHz
Frame rate                               : 93.750 FPS (512 SPF)
Bit depth                                : 24 bits
Compression mode                         : Lossy
Stream size                              : 1.01 GiB (24%)
Title                                    : / 5.1 Ch / 1509 kbps / Original
Language                                 : English
Default                                  : No
Forced                                   : No

Text #1
ID                                       : 4
Format                                   : UTF-8
Codec ID                                 : S_TEXT/UTF8
Codec ID/Info                            : UTF-8 Plain Text
Duration                                 : 1 h 25 min
Bit rate                                 : 1 b/s
Count of elements                        : 27
Stream size                              : 919 Bytes (0%)
Title                                    : Forced
Language                                 : Ukrainian
Default                                  : Yes
Forced                                   : Yes

Text #2
ID                                       : 5
Format                                   : UTF-8
Codec ID                                 : S_TEXT/UTF8
Codec ID/Info                            : UTF-8 Plain Text
Duration                                 : 1 h 34 min
Bit rate                                 : 72 b/s
Count of elements                        : 1034
Stream size                              : 50.1 KiB (0%)
Title                                    : Full from Netflix
Language                                 : Ukrainian
Default                                  : No
Forced                                   : No

Text #3
ID                                       : 6
Format                                   : UTF-8
Codec ID                                 : S_TEXT/UTF8
Codec ID/Info                            : UTF-8 Plain Text
Duration                                 : 1 h 30 min
Bit rate                                 : 55 b/s
Count of elements                        : 1434
Stream size                              : 37.1 KiB (0%)
Title                                    : Full
Language                                 : English
Default                                  : No
Forced                                   : No

Text #4
ID                                       : 7
Format                                   : UTF-8
Codec ID                                 : S_TEXT/UTF8
Codec ID/Info                            : UTF-8 Plain Text
Duration                                 : 1 h 35 min
Bit rate                                 : 63 b/s
Count of elements                        : 1735
Stream size                              : 44.2 KiB (0%)
Title                                    : SDH
Language                                 : English
Default                                  : No
Forced                                   : No

Text #5
ID                                       : 8
Format                                   : UTF-8
Codec ID                                 : S_TEXT/UTF8
Codec ID/Info                            : UTF-8 Plain Text
Duration                                 : 1 h 35 min
Bit rate                                 : 142 b/s
Count of elements                        : 1738
Stream size                              : 99.5 KiB (0%)
Title                                    : SDH-Colored
Language                                 : English
Default                                  : No
Forced                                   : No

Menu
00:00:00.000                             : en:Chapter 1
00:04:54.461                             : en:Chapter 2
00:10:26.000                             : en:Chapter 3
00:14:10.683                             : en:Chapter 4
00:21:46.722                             : en:Chapter 5
00:25:08.799                             : en:Chapter 6
00:29:37.859                             : en:Chapter 7
00:33:09.321                             : en:Chapter 8
00:37:50.143                             : en:Chapter 9
00:41:46.170                             : en:Chapter 10
00:44:54.191                             : en:Chapter 11
00:53:07.935                             : en:Chapter 12
00:57:28.362                             : en:Chapter 13
01:00:18.448                             : en:Chapter 14
01:07:41.557                             : en:Chapter 15
01:12:16.290                             : en:Chapter 16
01:16:35.090                             : en:Chapter 17
01:21:17.081                             : en:Chapter 18
01:27:13.645                             : en:Chapter 19
01:30:24.169                             : en:Chapter 20
Світлини



2. Щасливий день смерті 2 / Happy Death Day 2U (2019) 1080p H.265 Ukr/Eng | Sub Ukr/Eng
Щасливий день смерті 2 / Happy Death Day 2U (2019) 1080p H.265 Ukr/Eng | Sub Ukr/Eng

Щасливий день смерті. Дилогія / Happy Death Day. Dilogy (2017, 2019) 1080p H.265 Ukr/Eng | Sub Ukr/Eng


Жанр: детектив, трилер, жахи
Країна: США
Кінокомпанія: Universal Pictures, Blumhouse Productions
Режисер: Крістофер Лендон
Актори: Джессіка Рот, Ізраель Бруссар, Рубі Модін, Сурадж Шарма, Рейчел Меттьюз, Стів Зісіс, Чарльз Ейткен, Фі Ву, Лаура Кліфтон, Тені Інтріаго

Сюжет:
Одного разу Трі вже мала досить дивний подарунок на день народження – вона його проживала знову і знову, а закінчувалося все тим, що її вбивав маніяк у масці немовляти. І так би було вічно, поки дівчина не знайшла свого вбивцю та сама позбавила його життя. Пройшов цілий рік із того часу, її повністю влаштовує нове життя. Тільки ось на черговий день народження стара історія повторилася. Зараз разом із Трі дежавю проживають і її друзі. Якщо дівчина вмирає та починає день заново, то й з ними трапляється те саме. І цього разу маніяк вбиває і їх. Коли Трі переродиться та проживе цей проклятий день, дуже важливо, щоб її друзі також залишилися живі...

Тривалість: 01:39:55
Якість:

Відео:
кодек: H.265 (HEVC)
розмір кадру: 1920 x 802
бітрейт: 5 212 кб/с
бітова глибина: 10 біт

Увага! Перед завантаженням переконайтесь, що ваш пристрій відтворення (та/або ПЗ) підтримує H.265 (HEVC)

Аудіо # 1:
мова: українська
озвучення: професійне дубльоване
кодек: AC-3 2.0 (Стерео)
бітрейт: 192 кб/с

Аудіо # 2:
мова: англійська
озвучення: оригінал
кодек: 5.1
бітрейт: 1510 кб/с

Субтитри # 1-2: (Forced, Full from Netflix)
мова: українська
тип: програмні (м'які)
формат: *.srt

Субтитри # 3-4: (Full, SDH)
мова: англійська
тип: програмні (м'які)
формат: *.srt


Інформація про файл
Код:
General
Unique ID                                : 230953757380716439623649841898403270366 (0xADC01361C8E45C68C11E2A98873A0EDE)
Complete name                            : 2. Happy Death Day 2U (2019) 1080p H.265 [UKR_ENG] [Hurtom].
Format                                   :
Format version                           : Version 4
File size                                : 4.83 GiB
Duration                                 : 1 h 39 min
Overall bit rate                         : 6 916 kb/s
Movie name                               : Щасливий день смерті 2 / Happy Death Day 2U (2019)
Encoded date                             : UTC 2020-12-05 12:23:36
Writing application                      : v20.0.0 ('I Am The Sun') 64-bit
Writing library                          : libebml v1.3.5 + v1.4.8
Cover                                    : Yes
Attachments                              : cover.jpg

Video
ID                                       : 1
Format                                   : HEVC
Format/Info                              : High Efficiency Video Coding
Format profile                           : Main [email protected]@High
Codec ID                                 : V_MPEGH/ISO/HEVC
Duration                                 : 1 h 39 min
Bit rate                                 : 5 212 kb/s
Width                                    : 1 920 pixels
Height                                   : 802 pixels
Display aspect ratio                     : 2.40:1
Frame rate mode                          : Constant
Frame rate                               : 23.976 (24000/1001) FPS
Color space                              : YUV
Chroma subsampling                       : 4:2:0
Bit depth                                : 10 bits
Bits/(Pixel*Frame)                       : 0.141
Stream size                              : 3.64 GiB (75%)
Title                                    : Щасливий день смерті 2 / Happy Death Day 2U (2019)
Writing library                          : x265 3.2+5-354901970679:[Windows][clang 8.0.1][64 bit] 10bit
Encoding settings                        : cpuid=1111039 / frame-threads=9 / numa-pools=8 / wpp / no-pmode / no-pme / no-psnr / no-ssim / log-level=3 / input-csp=1 / input-res=1920x802 / interlace=0 / total-frames=0 / level-idc=41 / high-tier=1 / uhd-bd=0 / ref=5 / allow-non-conformance / no-repeat-headers / annexb / aud / no-hrd / info / hash=0 / no-temporal-layers / open-gop / min-keyint=23 / keyint=240 / gop-lookahead=0 / bframes=12 / b-adapt=2 / b-pyramid / bframe-bias=0 / rc-lookahead=60 / lookahead-slices=1 / scenecut=40 / radl=0 / no-splice / no-intra-refresh / ctu=32 / min-cu-size=8 / rect / amp / max-tu-size=32 / tu-inter-depth=4 / tu-intra-depth=4 / limit-tu=0 / rdoq-level=2 / dynamic-rd=0.00 / no-ssim-rd / signhide / no-tskip / nr-intra=0 / nr-inter=0 / no-constrained-intra / no-strong-intra-smoothing / max-merge=5 / limit-refs=3 / limit-modes / me=3 / subme=7 / merange=57 / temporal-mvp / no-frame-dup / no-hme / weightp / weightb / no-analyze-src-pics / deblock=-3:-3 / no-sao / no-sao-non-deblock / rd=6 / selective-sao=0 / no-early-skip / no-rskip / no-fast-intra / no-tskip-fast / no-cu-lossless / no-b-intra / no-splitrd-skip / rdpenalty=0 / psy-rd=2.00 / psy-rdoq=1.00 / no-rd-refine / no-lossless / cbqpoffs=0 / crqpoffs=0 / rc=crf / crf=20.0 / qcomp=0.70 / qpstep=4 / stats-write=0 / stats-read=0 / vbv-maxrate=50000 / vbv-bufsize=50000 / vbv-init=0.9 / crf-max=30.0 / crf-min=0.0 / ipratio=1.40 / pbratio=1.30 / aq-mode=4 / aq-strength=1.00 / no-cutree / zone-count=0 / no-strict-cbr / qg-size=32 / no-rc-grain / qpmax=69 / qpmin=0 / no-const-vbv / sar=1 / overscan=0 / videoformat=5 / range=0 / colorprim=2 / transfer=2 / colormatrix=2 / chromaloc=0 / display-window=0 / cll=0,0 / min-luma=0 / max-luma=1023 / log2-max-poc-lsb=8 / vui-timing-info / vui-hrd-info / slices=1 / no-opt-qp-pps / no-opt-ref-list-length-pps / no-multi-pass-opt-rps / scenecut-bias=0.05 / no-opt-cu-delta-qp / no-aq-motion / no-hdr / no-hdr-opt / no-dhdr10-opt / no-idr-recovery-sei / analysis-reuse-level=5 / scale-factor=0 / refine-intra=0 / refine-inter=0 / refine-mv=1 / refine-ctu-distortion=0 / no-limit-sao / ctu-info=0 / no-lowpass-dct / refine-analysis-type=0 / copy-pic=1 / max-ausize-factor=1.0 / no-dynamic-refine / no-single-sei / no-hevc-aq / no-svt / no-field / qp-adaptation-range=2.00
Language                                 : English
Default                                  : Yes
Forced                                   : No
Color range                              : Limited

Audio #1
ID                                       : 2
Format                                   : AC-3
Format/Info                              : Audio Coding 3
Commercial name                          : Dolby Digital
Codec ID                                 : A_AC3
Duration                                 : 1 h 39 min
Bit rate mode                            : Constant
Bit rate                                 : 192 kb/s
Channel(s)                               : 2 channels
Channel layout                           : L R
Sampling rate                            : 48.0 kHz
Frame rate                               : 31.250 FPS (1536 SPF)
Compression mode                         : Lossy
Stream size                              : 137 MiB (3%)
Title                                    : AC-3 / 2.0 Ch / 192 kbps / DUB / Stereo
Language                                 : Ukrainian
Service kind                             : Complete Main
Default                                  : Yes
Forced                                   : Yes

Audio #2
ID                                       : 3
Format                                   :
Format/Info                              : Digital Theater Systems
Codec ID                                 : A_DTS
Duration                                 : 1 h 39 min
Bit rate mode                            : Constant
Bit rate                                 : 1 509 kb/s
Channel(s)                               : 6 channels
Channel layout                           : C L R Ls Rs LFE
Sampling rate                            : 48.0 kHz
Frame rate                               : 93.750 FPS (512 SPF)
Bit depth                                : 24 bits
Compression mode                         : Lossy
Stream size                              : 1.05 GiB (22%)
Title                                    : / 5.1 Ch / 1509 kbps / Original
Language                                 : English
Default                                  : No
Forced                                   : No

Text #1
ID                                       : 4
Format                                   : UTF-8
Codec ID                                 : S_TEXT/UTF8
Codec ID/Info                            : UTF-8 Plain Text
Duration                                 : 1 h 25 min
Bit rate                                 : 2 b/s
Count of elements                        : 32
Stream size                              : 1.33 KiB (0%)
Title                                    : Forced
Language                                 : Ukrainian
Default                                  : Yes
Forced                                   : Yes

Text #2
ID                                       : 5
Format                                   : UTF-8
Codec ID                                 : S_TEXT/UTF8
Codec ID/Info                            : UTF-8 Plain Text
Duration                                 : 1 h 38 min
Bit rate                                 : 79 b/s
Count of elements                        : 1050
Stream size                              : 57.1 KiB (0%)
Title                                    : Full from Netflix
Language                                 : Ukrainian
Default                                  : No
Forced                                   : No

Text #3
ID                                       : 6
Format                                   : UTF-8
Codec ID                                 : S_TEXT/UTF8
Codec ID/Info                            : UTF-8 Plain Text
Duration                                 : 1 h 33 min
Bit rate                                 : 64 b/s
Count of elements                        : 1604
Stream size                              : 43.9 KiB (0%)
Title                                    : Full
Language                                 : English
Default                                  : No
Forced                                   : No

Text #4
ID                                       : 7
Format                                   : UTF-8
Codec ID                                 : S_TEXT/UTF8
Codec ID/Info                            : UTF-8 Plain Text
Duration                                 : 1 h 39 min
Bit rate                                 : 67 b/s
Count of elements                        : 1868
Stream size                              : 49.5 KiB (0%)
Title                                    : SDH
Language                                 : English
Default                                  : No
Forced                                   : No

Menu
00:00:00.000                             : en:Chapter 01
00:07:42.253                             : en:Chapter 02
00:16:01.085                             : en:Chapter 03
00:21:16.066                             : en:Chapter 04
00:24:21.460                             : en:Chapter 05
00:28:44.890                             : en:Chapter 06
00:32:34.661                             : en:Chapter 07
00:37:15.817                             : en:Chapter 08
00:42:02.812                             : en:Chapter 09
00:45:35.107                             : en:Chapter 10
00:48:37.665                             : en:Chapter 11
00:54:27.347                             : en:Chapter 12
01:00:36.341                             : en:Chapter 13
01:06:24.314                             : en:Chapter 14
01:13:19.520                             : en:Chapter 15
01:17:47.079                             : en:Chapter 16
01:21:31.762                             : en:Chapter 17
01:27:36.084                             : en:Chapter 18
01:33:02.994                             : en:Chapter 19
01:35:05.700                             : en:Chapter 20
Лог кодування
Код:
x265 info: frame I: 2027, Avg QP:17.16 kb/s: 18330.20
x265 info: frame P: 31592, Avg QP:18.60 kb/s: 9106.70
x265 info: frame B: 110140, Avg QP:21.12 kb/s: 3851.87
x265 info: Weighted P-Frames: Y:3.5% UV:2.7%
x265 info: Weighted B-Frames: Y:3.5% UV:2.4%
x265 info: consecutive B-frames: 9.7% 4.1% 5.3% 44.1% 12.7% 18.9% 2.8% 1.3% 0.4% 0.4% 0.1% 0.1% 0.1%
x265 info: encoded 143759 frames in 151261.88s (0.95 fps), 5210.80 kb/s, Avg QP:20.51
Світлини




Джерело: &
Особиста оцінка: 10 - без зайвих вагань рекомендую всім!

Подяка пану leicheman за надані укр. субтитри.


Бронзовий реліз (на рейтинг впливає 75% завантаженого)
 Трекер:    Зареєстрований   

Завантажити / скачати фільм українською



відео для новачків



 Зареєстрований:   2020-12-05 14:47
 Розмір:   8.98 GB 
 Оцінка фільму:   10/10 (Голосів: 3)
   
Apple 
Попереджень: 1
Попереджень: 1 


З нами з: 13.07.08
Востаннє: 23.01.21
Повідомлень: 221

2021-01-04 18:10  
2021 рік!
Я нарешті це глянув!

Ну шо! Вогень!

Svs12345 
Новенький


З нами з: 25.12.19
Востаннє: 17.01.21
Повідомлень: 8

2021-01-08 18:55  
Неймовірно цікаві обидві серії. Дякую
Ваш часовий пояс: GMT + 2 Години

Нова тема   Відповісти