Юні мисливиці за головами (Сезон 1) / Teenage Bounty Hunters (Season 1) (2020) 1080p Ukr/Eng

Нові коментарі

Нова тема   Відповісти
Автор Повідомлення
DniproFilm 
VIP


З нами з: 10.10.18
Востаннє: 28.02.21
Повідомлень: 459

2020-12-03 21:58  
Юні мисливиці за головами (Сезон 1) / Teenage Bounty Hunters (Season 1) (2020) 1080p Ukr/Eng

Юні мисливиці за головами (Сезон 1) / Teenage Bounty Hunters (Season 1) (2020) 1080p Ukr/Eng


Жанр: комедія, кримінальний, драма
Країна: США



Кінокомпанія / телеканал: Netflix, Tilted Productions
Режисер: Ребекка Ешер, Марк А. Берлі, Ендрю Деянг
Актори/ролі озвучують: Медді Філліпс, Анжеліка Бетт Фелліні, Кадім Гардісон, Вірджинія Вільямс, Макензі Астін, Ширлі Румірк, Девон Хейлс, Спенсер Хаус, Черіті Сервантес, Майлс Еванс та iншi

Сюжет:
Двоє сестер-близнючок — набожна Стерлінг та бунтарка Блер — навчаються в елітній школі й переймаються проблемами навчання, кохання та сексу. Життя дівчат змінюється, коли вони випадково зустрічають мисливця за головами на ім’я Боузер. Сестри допомагають Боузеру продавати заморожений йогурт у його крамниці, проте у вільний час разом з ним полюють на правопорушників.


Тривалість: 1 серія: ~ 50 хв. (цілком серій: 10)
Перелік серій

01. Daddy's Truck
02. What's a Jennings
03. This Must Be How Dumb Kids Feel
04. Basically Pluto
05. Death Is Bad
06. Master Debater
07. Cleave or Whatever
08. From Basic to Telenovela
09. Our Ham Is Good
10. Something Sour Patch
Якість:
Відео:
кодек:
розмір кадру: 1920x960
бітрейт: ~7000 кб/с

Аудіо # 1:
мова: українська
переклад: багатоголосий закадровий | DniproFilm
кодек: 5.1
бітрейт: 640 кб/с

Аудіо # 2:
мова: англійська
переклад: оригінал
кодек: 5.1
бітрейт: 640 кб/с
Info
Код:

Video
ID                          : 1
Format                      : AVC
Format/Info                 : Advanced Video Codec
Format profile              : [email protected]
Format settings             : CABAC / 1 Ref Frames
Format settings, CABAC      : Yes
Format settings, Reference  : 1 frame
Format settings, GOP        : M=1, N=30
Codec ID                    : V_MPEG4/ISO/AVC
Duration                    : 48 min 20 s
Bit rate                    : 7 004 kb/s
Width                       : 1 920 pixels
Height                      : 960 pixels
Display aspect ratio        : 2.000
Frame rate mode             : Constant
Frame rate                  : 23.976 (24000/1001) FPS
Color space                 : YUV
Chroma subsampling          : 4:2:0
Bit depth                   : 8 bits
Scan type                   : Progressive
Bits/(Pixel*Frame)          : 0.158
Stream size                 : 2.37 GiB (85%)
Language                    : English
Default                     : Yes
Forced                      : No

Audio #1
ID                          : 2
Format                      : AC-3
Format/Info                 : Audio Coding 3
Commercial name             : Dolby Digital
Codec ID                    : A_AC3
Duration                    : 48 min 20 s
Bit rate mode               : Constant
Bit rate                    : 640 kb/s
Channel(s)                  : 6 channels
Channel layout              : L R C LFE Ls Rs
Sampling rate               : 48.0 kHz
Frame rate                  : 31.250 FPS (1536 SPF)
Compression mode            : Lossy
Stream size                 : 221 MiB (8%)
Title                       : DniproFilm
Language                    : Ukrainian
Service kind                : Complete Main
Default                     : Yes
Forced                      : No

Audio #2
ID                          : 3
Format                      : AC-3
Format/Info                 : Audio Coding 3
Commercial name             : Dolby Digital
Codec ID                    : A_AC3
Duration                    : 48 min 20 s
Bit rate mode               : Constant
Bit rate                    : 640 kb/s
Channel(s)                  : 6 channels
Channel layout              : L R C LFE Ls Rs
Sampling rate               : 48.0 kHz
Frame rate                  : 31.250 FPS (1536 SPF)
Compression mode            : Lossy
Stream size                 : 221 MiB (8%)
Language                    : English
Service kind                : Complete Main
Default                     : No
Forced                      : No
Скріншоти





Джерело озвучення: DniproFilm


Авторський реліз (завантажувати можна без реєстрації)
 Трекер:    Зареєстрований   

Завантажити / скачати серіал українською



відео для новачків



 Зареєстрований:   2020-12-03 21:58
 Розмір:   27.93 GB 
 Оцінка серіалу:   9/10 (Голосів: 5)
   
Krisstik8 
Новенький


З нами з: 05.01.17
Востаннє: 02.03.21
Повідомлень: 1

2021-02-04 18:19  
Гарна картинка, миловидні акторки. На четвертій серії дропнув.
Ваш часовий пояс: GMT + 2 Години

Нова тема   Відповісти