Ліга Чемпіонів UEFA. Група B. 5 тур. Шахтар Донецьк (Україна) - Реал Мадрид (Іспанія) (01.12.2020) 720p 50fps

Нові коментарі

Нова тема   Відповісти
Останній раз роздавалося dei2 (2021-02-27)
Автор Повідомлення
misamisk 
Поважний учасник


З нами з: 16.10.17
Востаннє: 27.02.21
Повідомлень: 157

2020-12-03 18:48  
Ліга Чемпіонів UEFA. Група B. 5 тур. Шахтар Донецьк (Україна) - Реал Мадрид (Іспанія) (01.12.2020) 720p 50fps

Ліга Чемпіонів UEFA. Група B. 5 тур. Шахтар Донецьк (Україна) - Реал Мадрид (Іспанія) (01.12.2020) 720p 50fps


Телеканал: Футбол 1 HD
Опис:
Матч відбувся 1 грудня 2020 року у Києві на НСК "Олімпійський".

Матч обслуговували:
Рефері: Овідіу Хацеґан (Румунія)
Асистенти рефері: Октавіан Шовре (Румунія), Себастьян Георге (Румунія)
Четвертий арбітр: Себастьян Кольтеску (Румунія)
VAR: Павел Гіль (Польща)
Асистент VAR: Марчін Борковскі (Польща)

Коментатор: Кирило Круторогов


Тривалість: 01:49:49
Якість: 720p

Автор ріпа: shakhtyor

Відео:
кодек:
розмір кадру: 1280 x 720
бітрейт: ~3500 кб/с

Аудіо:
мова: українська
переклад: одноголосий закадровий
кодек: 2.0
бітрейт: 128 кб/с
Стартові склади
Info
General
Unique ID : 16197659509337269429773382955391783864 (0xC2F8E457CEAF9E96E898F4CB52C13B8)
Complete name : Shakhtar Donetsk - Real Madrid.
Format :
Format version : Version 4
File size : 2.79 GiB
Duration : 1 h 49 min
Overall bit rate : 3 642 kb/s
Writing application : VideoReDo (Lavf58.29.100)
Writing library : VideoReDo (Lavf58.29.100)
ErrorDetectionType : Per level 1

Video
ID : 1
Format : AVC
Format/Info : Advanced Video Codec
Format profile : [email protected]
Format settings : CABAC / 4 Ref Frames
Format settings, CABAC : Yes
Format settings, Reference frames : 4 frames
Codec ID : V_MPEG4/ISO/AVC
Duration : 1 h 49 min
Bit rate : 3 441 kb/s
Width : 1 280 pixels
Height : 720 pixels
Display aspect ratio : 16:9
Frame rate mode : Constant
Frame rate : 50.000 FPS
Color space : YUV
Chroma subsampling : 4:2:0
Bit depth : 8 bits
Scan type : Progressive
Bits/(Pixel*Frame) : 0.075
Stream size : 2.64 GiB (94%)
Default : No
Forced : No

Audio
ID : 2
Format : AC-3
Format/Info : Audio Coding 3
Commercial name : Dolby Digital
Codec ID : A_AC3
Duration : 1 h 49 min
Bit rate mode : Constant
Bit rate : 128 kb/s
Channel(s) : 2 channels
Channel layout : L R
Sampling rate : 48.0 kHz
Frame rate : 31.250 FPS (1536 SPF)
Compression mode : Lossy
Stream size : 101 MiB (4%)
Language : Ukrainian
Service kind : Complete Main
Default : Yes
Forced : No

Menu
00:00:00.000 : :Chapter 1
00:56:37.820 : :Chapter 2
Скріншоти
Подяка за допомогу у створенні релізу : rgfootball


Золотий реліз (завантажене не впливає на рейтинг)
 Трекер:    Зареєстрований   

Завантажити / скачати торрент



відео для новачків



 Зареєстрований:   2020-12-03 18:48
 Розмір:   2.79 GB 
 Оцінка:   10/10 (Голосів: 2)
   
staf777 
Відео Гуртом - підтримка та поширення
Відео Гуртом - підтримка та поширення


З нами з: 16.11.16
Востаннє: 02.03.21
Повідомлень: 5067

2020-12-03 18:51  
О це гра не то що динамо - каліки

misamisk 
Поважний учасник


З нами з: 16.10.17
Востаннє: 27.02.21
Повідомлень: 157

2020-12-03 19:10  
staf777
Не знаю, такі суб'єктивні думки щодо гри, на мою думку, краще ховати у спойлер.
Спойлер
А то хто ще подумає з Ваших коментарів, що Шахтар виграв і йому стане нецікаво

Ваш часовий пояс: GMT + 2 Години

Нова тема   Відповісти