Ліга Чемпіонів UEFA. Група G. 5 тур. Ювентуc (Італія) - Динамо Київ (Україна) (02.12.2020) 1080p

Нові коментарі

Нова тема   Відповісти
Останній раз роздавалося misamisk (2020-12-29)
Автор Повідомлення
misamisk 
Поважний учасник


З нами з: 16.10.17
Востаннє: 25.02.21
Повідомлень: 154

2020-12-03 16:40  
Ліга Чемпіонів UEFA. Група G. 5 тур. Ювентуc (Італія) - Динамо Київ (Україна) (02.12.2020) 1080p

Ліга Чемпіонів UEFA. Група G. 5 тур. Ювентуc (Італія) - Динамо Київ (Україна) (02.12.2020) 1080p


Телеканал: Volia Football HD 1
Опис:
Матч відбувся 2 грудня 2020 року на "Ювентус Стедіум" у Турині.

Матч обслуговували:

Рефері: Стефані Фраппар (Франція)
Асистенти рефері: Мехді Рахмуні, Хікам Закрані
Четвертий арбітр: Карім Абед
VAR: Бенуа Мілло
Асистент VAR: Делайод Віллі

Коментатори: Володимир Кобельков та Віталій Звєров


Автор ріпа: sergiyko

Тривалість: 01:44:05
Якість:
Відео:
кодек:
розмір кадру: 1920 x 1080
бітрейт: 6 125 кб/с

Аудіо:
кодек: 2.0
мова: українська
бітрейт: 192 кб/с
Стартові склади
Info
General
Unique ID : 304470544113003528062194132083659502044 (0xE50EE4D0AC83E48002CCF486FD3FF1DC)
Complete name : UCL.2020-21.Group.Stage.Matchday.5.Juventus-Dynamo.Kyiv.1080p..
Format :
Format version : Version 4
File size : 4.60 GiB
Duration : 1 h 44 min
Overall bit rate mode : Variable
Overall bit rate : 6 321 kb/s
Movie name : rip by mazepa.to
Encoded date : UTC 2020-12-02 22:33:23
Writing application : v48.0.0 ('Fortress Around Your Heart') 64-bit
Writing library : libebml v1.4.0 + v1.6.0

Video
ID : 1
Format : AVC
Format/Info : Advanced Video Codec
Format profile : [email protected]
Format settings : CABAC / 2 Ref Frames
Format settings, CABAC : Yes
Format settings, Reference frames : 2 frames
Format settings, GOP : M=3, N=25
Codec ID : V_MPEG4/ISO/AVC
Duration : 1 h 44 min
Bit rate mode : Variable
Bit rate : 6 125 kb/s
Maximum bit rate : 7 500 kb/s
Width : 1 920 pixels
Height : 1 080 pixels
Display aspect ratio : 16:9
Frame rate mode : Constant
Frame rate : 25.000 FPS
Color space : YUV
Chroma subsampling : 4:2:0
Bit depth : 8 bits
Scan type : Progressive
Bits/(Pixel*Frame) : 0.118
Stream size : 4.45 GiB (97%)
Language : English
Default : Yes
Forced : No

Audio
ID : 2
Format : LC
Format/Info : Advanced Audio Codec Low Complexity
Codec ID : A_AAC-2
Duration : 1 h 44 min
Bit rate : 192 kb/s
Channel(s) : 2 channels
Channel layout : L R
Sampling rate : 48.0 kHz
Frame rate : 46.875 FPS (1024 SPF)
Compression mode : Lossy
Stream size : 144 MiB (3%)
Language : Ukrainian
Default : Yes
Forced : No

Menu
00:00:00.000 : :Chapter 1
00:01:51.040 : :Chapter 2
00:53:24.440 : :Chapter 3
Скріншоти


Бронзовий реліз (на рейтинг впливає 75% завантаженого)
 Трекер:    Зареєстрований   

Завантажити / скачати торрент



відео для новачків



 Зареєстрований:   2020-12-03 16:40
 Розмір:   4.6 GB 
 Оцінка:   10/10 (Голосів: 3)
   
staf777 
Відео Гуртом - підтримка та поширення
Відео Гуртом - підтримка та поширення


З нами з: 16.11.16
Востаннє: 25.02.21
Повідомлень: 5054

2020-12-03 16:44  
От динамо - одна назва залишилася ...
залишилось лише Реброву програти та віддати йому путівку у ЛЄ...

feron9 
Забанено
Забанено


З нами з: 07.11.17
Востаннє: 21.01.21
Повідомлень: 56

2020-12-03 17:50  
misamisk
А для чого перейменовувати файл релізу? Так би сіди і піри були об'єднані в мережі.

misamisk 
Поважний учасник


З нами з: 16.10.17
Востаннє: 25.02.21
Повідомлень: 154

2020-12-03 18:35  
feron9
А це питання, будь ласка, адресуйте antik_2008. Я бачив на власні очі, як один із релізів Формули 1 був залитий так як Ви сказали і реліз був відправлений на перестворення торрента.

antik_2008 
Релізер і модератор відео


З нами з: 20.10.08
Востаннє: 25.02.21
Повідомлень: 4680

2020-12-03 19:09  
misamisk написано:

feron9
А це питання, будь ласка, адресуйте antik_2008. Я бачив на власні очі, як один із релізів Формули 1 був залитий так як Ви сказали і реліз був відправлений на перестворення торрента.

той торент ще був не довантажений

і було наприклад

Цитата:
[mazpa].t88.torrent


а треба завантажити і зробити свій торент файл
і тоді вийде так

Цитата:
F1.2020.15.Bahrain.Qualifying.1080p..Ukr.Eng.Int-mazepa..torrent


feron9 ви і тут зможете підтримати
назва ролі не грає

misamisk
CL.2020-21.t5.GrG.Juventus-Dynamo.Kyiv.1080p.-mazepa

або взагалі тоді назву змінювати по правилам
або mazepa можно і залишити

misamisk Дякую за реліз.

misamisk 
Поважний учасник


З нами з: 16.10.17
Востаннє: 25.02.21
Повідомлень: 154

2020-12-03 19:38  
antik_2008
Щодо назви зрозумів, дякую. Надалі буду знати, що назву можна не змінювати у таких випадках

Додано через 24 хвилини 42 секунди:

antik_2008
antik_2008 написано:
або взагалі тоді назву змінювати по правилам


Назву файлу? Як тоді правильно буде назвати файл? Чи Ви маєте на увазі "rip by..." у заголовку файла всередині?

antik_2008 
Релізер і модератор відео


З нами з: 20.10.08
Востаннє: 25.02.21
Повідомлень: 4680

2020-12-03 19:42  
Цитата:
Juventus_Dynamo Kyiv (02.12.2020) 1080p


Цитата:
Juventus-Dynamo Kyiv (02.12.2020) 1080p [Ukr]


Цитата:
UCL Group G Stage.Matchday.5 Juventus Dynamo Kyiv (02.12.2020) 1080p


Цитата:
UCL.2020-21.Group.Stage.Matchday.5.Juventus-Dynamo.Kyiv (02.12.2020) 1080p

наприклад

misamisk 
Поважний учасник


З нами з: 16.10.17
Востаннє: 25.02.21
Повідомлень: 154

2020-12-03 19:43  
зрозуміло, дякую
antik_2008 
Релізер і модератор відео


З нами з: 20.10.08
Востаннє: 25.02.21
Повідомлень: 4680

2020-12-03 19:51  
misamisk
або залишати повний

Цитата:
F1.2020.15.Bahrain.Qualifying.1080p..Ukr.Eng.Int-mazepa..torrent


а там дивитися , що реклами не було , або треба трохи змінити чи ні його

Ваш часовий пояс: GMT + 2 Години

Нова тема   Відповісти