Чаклунство: Спадок / The Craft: Legacy (2020) 720p Ukr/Eng | Sub Ukr/Eng

Нові коментарі

Нова тема   Відповісти
Автор Повідомлення
Anonymous 







2020-12-02 20:22  
Чаклунство: Спадок / The Craft: Legacy (2020) 720p Ukr/Eng | Sub Ukr/Eng

Чаклунство: Спадок / The Craft: Legacy (2020) 720p Ukr/Eng | Sub Ukr/Eng


Жанр: драма, жахи, фентезі
Країна: США, Канада



Кінокомпанія: Black Bear Pictures, IFC Films
Режисер: Зої Лістер-Джонс / Zoe Lister-Jones
Актори: Кайлі Спейні / Cailee Spaeny, Зої Луна / Zoey Luna, Гідеон Адлон / Gideon Adlon, Лові Сімон / Lovie Simone, Девід Духовни / David Duchovny, Мішель Монаган / Michelle Monaghan, Ніколас Голіцин / Nicholas Galitzine та інші

Сюжет:
Четверо молодих дівчат отримують могутні чаклунські сили і створюють клан відьом. Проте вони навіть не підозрюють, яку силу приховує цей дар. На героїнь нового покоління чекають надприродні випробування, до яких вони не були готові.
Офіційний український трейлер:

Рейтинг MPAA: PG-13 - дітям до 13 років перегляд не бажаний
Вікова категорія: 12+

Тривалість: 01:34:22
Якість: 720p [ріп від LoRD]

Відео:
кодек:
розмір кадру: 1248 х 536
бітрейт: 4635 кб/с

Аудіо # 1:
мова: українська
переклад: професійний дубльований
кодек: 5.1
бітрейт: 384 кб/с

Аудіо # 2:
мова: англійська
переклад: оригінал
кодек: 5.1
бітрейт: 640 кб/с

Субтитри # 1-2:
мова: українська (форсовані, повні)
тип: програмні (м'які)
формат: *.srt
переклад: офіційний, Володимир Фатун

Субтитри # 2-3:
мова: англійська (повні, SDH)
тип: програмні (м'які)
формат: *.srt
Info та log
Код:
Complete name               : The Craft. Legacy (2020) [Ukr,Eng sub.Ukr,Eng] 720p [Hurtom].
Format                      :
Format version              : Version 4
File size                   : 3.73 GiB
Duration                    : 1 h 34 min
Overall bit rate            : 5 661 kb/s
Movie name                  : Чаклунство: Спадок / The Craft: Legacy (2020) [Ukr,Eng sub.Ukr,Eng] 720p [Hurtom]
Encoded date                : UTC 2021-01-14 13:07:13
Writing application         : v52.0.0 ('Secret For The Mad') 64-bit
Writing library             : libebml v1.4.1 + v1.6.2
Cover                       : Yes
Attachments                 : cover.jpg

Video
ID                          : 1
Format                      : AVC
Format/Info                 : Advanced Video Codec
Format profile              : [email protected]
Format settings             : CABAC / 12 Ref Frames
Format settings, CABAC      : Yes
Format settings, Reference  : 12 frames
Codec ID                    : V_MPEG4/ISO/AVC
Duration                    : 1 h 34 min
Bit rate                    : 4 635 kb/s
Width                       : 1 280 pixels
Height                      : 536 pixels
Display aspect ratio        : 2.40:1
Frame rate mode             : Constant
Frame rate                  : 23.976 (24000/1001) FPS
Color space                 : YUV
Chroma subsampling          : 4:2:0
Bit depth                   : 8 bits
Scan type                   : Progressive
Bits/(Pixel*Frame)          : 0.282
Stream size                 : 3.06 GiB (82%)
Title                       : Чаклунство: Спадок / The Craft: Legacy (2020) 720p [LoRD]
Writing library             : core 161 r3027 ~ LoRD
Encoding settings           : cabac=1 / ref=12 / deblock=1:-3:-3 / analyse=0x3:0x133 / me=umh / subme=10 / psy=1 / psy_rd=1.00:0.00 / mixed_ref=1 / me_range=32 / chroma_me=1 / trellis=2 / 8x8dct=1 / cqm=0 / deadzone=21,11 / fast_pskip=0 / chroma_qp_offset=-2 / threads=12 / lookahead_threads=2 / sliced_threads=0 / nr=0 / decimate=0 / interlaced=0 / bluray_compat=0 / constrained_intra=0 / bframes=9 / b_pyramid=2 / b_adapt=2 / b_bias=0 / direct=3 / weightb=1 / open_gop=0 / weightp=2 / keyint=250 / keyint_min=23 / scenecut=40 / intra_refresh=0 / rc_lookahead=60 / rc=crf / mbtree=0 / crf=16.5 / qcomp=0.66 / qpmin=0 / qpmax=69 / qpstep=4 / vbv_maxrate=62500 / vbv_bufsize=78125 / crf_max=0.0 / nal_hrd=none / filler=0 / ip_ratio=1.20 / pb_ratio=1.20 / aq=3:0.90
Language                    : English
Default                     : Yes
Forced                      : No
Color range                 : Limited
Color primaries             : BT.709
Transfer characteristics    : BT.709
Matrix coefficients         : BT.709

Audio #1
ID                          : 2
Format                      : AC-3
Format/Info                 : Audio Coding 3
Commercial name             : Dolby Digital
Codec ID                    : A_AC3
Duration                    : 1 h 34 min
Bit rate mode               : Constant
Bit rate                    : 384 kb/s
Channel(s)                  : 6 channels
Channel layout              : L R C LFE Ls Rs
Sampling rate               : 48.0 kHz
Frame rate                  : 31.250 FPS (1536 SPF)
Compression mode            : Lossy
Stream size                 : 259 MiB (7%)
Title                       : Dub [iTunes], 5.1 384 Kbps
Language                    : Ukrainian
Service kind                : Complete Main
Default                     : Yes
Forced                      : Yes

Audio #2
ID                          : 3
Format                      : AC-3
Format/Info                 : Audio Coding 3
Commercial name             : Dolby Digital
Codec ID                    : A_AC3
Duration                    : 1 h 34 min
Bit rate mode               : Constant
Bit rate                    : 640 kb/s
Channel(s)                  : 6 channels
Channel layout              : L R C LFE Ls Rs
Sampling rate               : 48.0 kHz
Frame rate                  : 31.250 FPS (1536 SPF)
Compression mode            : Lossy
Stream size                 : 432 MiB (11%)
Title                       : Original, 5.1 640 Kbps
Language                    : English
Service kind                : Complete Main
Default                     : No
Forced                      : No

Text #1
ID                          : 4
Format                      : UTF-8
Codec ID                    : S_TEXT/UTF8
Codec ID/Info               : UTF-8 Plain Text
Duration                    : 1 h 33 min
Bit rate                    : 0 b/s
Count of elements           : 5
Stream size                 : 155 Bytes (0%)
Title                       : Ukr Forced
Language                    : Ukrainian
Default                     : Yes
Forced                      : Yes

Text #2
ID                          : 5
Format                      : UTF-8
Codec ID                    : S_TEXT/UTF8
Codec ID/Info               : UTF-8 Plain Text
Duration                    : 1 h 33 min
Bit rate                    : 65 b/s
Count of elements           : 1016
Stream size                 : 44.4 KiB (0%)
Title                       : Ukr Full
Language                    : Ukrainian
Default                     : No
Forced                      : No

Text #3
ID                          : 6
Format                      : UTF-8
Codec ID                    : S_TEXT/UTF8
Codec ID/Info               : UTF-8 Plain Text
Duration                    : 1 h 24 min
Bit rate                    : 49 b/s
Count of elements           : 1003
Stream size                 : 30.7 KiB (0%)
Title                       : Eng Full
Language                    : English
Default                     : No
Forced                      : No

Text #4
ID                          : 7
Format                      : UTF-8
Codec ID                    : S_TEXT/UTF8
Codec ID/Info               : UTF-8 Plain Text
Duration                    : 1 h 31 min
Bit rate                    : 56 b/s
Count of elements           : 1258
Stream size                 : 37.6 KiB (0%)
Title                       : Eng SDH
Language                    : English
Default                     : No
Forced                      : No

Menu
00:00:00.000                : :Chapter 01
00:05:30.000                : :Chapter 02
00:11:00.000                : :Chapter 03
00:16:30.000                : :Chapter 04
00:22:00.000                : :Chapter 05
00:27:30.000                : :Chapter 06
00:33:00.000                : :Chapter 07
00:38:30.000                : :Chapter 08
00:44:00.000                : :Chapter 09
00:49:30.000                : :Chapter 10
00:55:00.000                : :Chapter 11
01:00:30.000                : :Chapter 12
01:06:00.000                : :Chapter 13
01:11:30.000                : :Chapter 14
01:17:00.000                : :Chapter 15
01:22:30.000                : :Chapter 16
01:28:00.000                : :Chapter 17
01:33:30.000                : :Chapter 18

Код:
[info]: frame I:1200   Avg QP:13.02 size:86650
[info]: frame P:28268  Avg QP:13.01 size:43569
[info]: frame B:106348 Avg QP:14.63 size:18299
[info]: consecutive  B-frames:2.2% 3.7% 4.6% 19.0% 14.0% 34.3% 8.0% 11.4% 2.3% 0.5%
Encoded 135816 Frames, 8.85 fps, 4634.52 kb/s ~ Encoding Duration 04:25:51




Джерело: &
Подяка п.Толоківчанину за допомогу у створенні релізу.

Історія релізу:
02.12.2020 початковий реліз, 720p Amazon з Line звуком та офіційними укр.субтитрами
14.01.2021 реліз оновлено - відеоряд замінено на , український дубляж замінено на 5.1 , додано українські форсовані субтитри.


Золотий реліз (завантажене не впливає на рейтинг)
 Трекер:    Зареєстрований   

Завантажити / скачати фільм українською



відео для новачків



 Зареєстрований:   2021-01-14 15:52
 Розмір:   3.73 GB 
 Оцінка фільму:   8.7/10 (Голосів: 7)
 ЗАЛИШАЙТЕСЬ ЯКОМОГА ДОВШЕ НА РОЗДАЧІ! ЗАВАНТАЖИВ САМ - ДАЙ ЗАВАНТАЖИТИ ІНШИМ!
   
dimon-2018 
VIP


З нами з: 06.05.18
Востаннє: 20.01.21
Повідомлень: 547

2020-12-03 09:34  
Anonymous написано:
професійний дубльований | Pie Post Production

Опача! А звідки інфа, що дубляж від Pie Post? Фільми, дистриб'ютором яких є B&H, дублює Ледуайєн, рідше - Постмодерн. У Pie Post же нема міжнародного сертифікату...

Anonymous 







2020-12-03 17:11  
dimon-2018 написано:
А звідки інфа, що дубляж від Pie Post?

скопіював з опису попереднього реліза

Anonymous 







2021-01-14 15:53  
Реліз оновлено - відеоряд замінено на , український дубляж замінено з на 5.1 , додано українські форсовані субтитри.
Ваш часовий пояс: GMT + 2 Години

Нова тема   Відповісти