Зоряний шлях: Дискавері (Сезон 2) / Star Trek: Discovery (Season 2) (2019) 1080p Ukr/Eng | Sub Eng

Нові коментарі

Нова тема   Відповісти
Автор Повідомлення
Argentum 
VIP


З нами з: 25.09.11
Востаннє: 05.03.21
Повідомлень: 285

2020-12-02 19:27  
Зоряний шлях: Дискавері (Сезон 2) / Star Trek: Discovery (Season 2) (2019) 1080p Ukr/Eng | Sub Eng

Зоряний шлях: Дискавері (Сезон 2) / Star Trek: Discovery (Season 2) (2019) 1080p Ukr/Eng | Sub Eng


Жанр: фантастика, екшн, пригодницький, драма
Країна: США



Кінокомпанія: CBS Television Studios, Secret Hideout, Living Dead Guy Productions, Roddenberry Entertainment
Режисер: Браян Фуллер, Алекс Куртцман
Актори: Соніка Мартін-Грін, Джейсон Айзекс, Даг Джонс, Енсон Маунт, Ітан Пек, Шазад Латіф, Ентоні Репп, Мері Вайсмен, Мішель Єо, Джеймс Фрейн, Джавід Ікбал, Кріс Обі, Кеннет Мітчелл та інші.

Сюжет:
За 10 років до подій оригінального серіалу, екіпаж корабля USS Discovery NCC-1031 відправляється в подорож, щоб вивчати глибокий космос, відкриваючи нові світи і цивілізації.


Тривалість: 1 серія: 50:00 (цілком серій: 14)
Перелік серій
2x01. Brother
2x02. New Eden
2x03. Point of Light
2x04. An Obol for Charon
2x05. Saints of Imperfection
2x06. The Sound of Thunder
2x07. Light and Shadows
2x08. If Memory Serves
2x09. Project Daedalus
2x10. The Red Angel
2x11. Perpetual Infinity
2x12. Through the Valley of Shadows
2x13. Such Sweet Sorrow (Part 1)
2x14. Such Sweet Sorrow (Part 2)
Якість:
Відео:
кодек:
розмір кадру: 1920 х 808
бітрейт: 8827 - 11700 кб/с

Аудіо # 1:
мова: українська
переклад: багатоголосий закадровий | DniproFilm
кодек: 2.0
бітрейт: 192 кб/с

Аудіо # 2:
мова: англійська
переклад: оригінал
кодек: 5.1
бітрейт: 640 кб/с

Субтитри 1-2: (форсовані*, повні)
мова: англійська
тип: програмні (м'які)
формат: *.srt
* - в окремих епізодах на клінгонську мову.
Info
General
Unique ID : 264127151721042524900889327929672092017 (0xC6B50A0000726F013630D9CE06004971)
Complete name : Star.Trek.Discovery.S02E03..1080p.Ukr.Eng.Hurtom.
Format :
Format version : Version 4
File size : 4.14 GiB
Duration : 49 min 13 s
Overall bit rate : 12.0 Mb/s
Movie name : 2x03. Point of Light
Encoded date : UTC 2020-12-03 19:50:17
Writing application : v51.0.0 ('I Wish') 64-bit
Writing library : libebml v1.4.0 + v1.6.2

Video
ID : 1
Format : AVC
Format/Info : Advanced Video Codec
Format profile : [email protected]
Format settings : CABAC / 5 Ref Frames
Format settings, CABAC : Yes
Format settings, Reference : 5 frames
Codec ID : V_MPEG4/ISO/AVC
Duration : 49 min 13 s
Bit rate : 11.2 Mb/s
Width : 1 920 pixels
Height : 808 pixels
Display aspect ratio : 2.40:1
Frame rate mode : Constant
Frame rate : 23.976 (24000/1001) FPS
Color space : YUV
Chroma subsampling : 4:2:0
Bit depth : 8 bits
Scan type : Progressive
Bits/(Pixel*Frame) : 0.301
Stream size : 3.85 GiB (93%)
Title : AVC 1920*808 @ 11.2 Mb/s
Writing library : core 158 r2984 3759fcb
Encoding settings : cabac=1 / ref=5 / deblock=1:-3:-3 / analyse=0x3:0x133 / me=umh / subme=8 / psy=1 / psy_rd=1.00:0.00 / mixed_ref=1 / me_range=16 / chroma_me=1 / trellis=1 / 8x8dct=1 / cqm=0 / deadzone=21,11 / fast_pskip=0 / chroma_qp_offset=-2 / threads=25 / lookahead_threads=4 / sliced_threads=0 / nr=0 / decimate=1 / interlaced=0 / bluray_compat=0 / constrained_intra=0 / bframes=3 / b_pyramid=2 / b_adapt=1 / b_bias=0 / direct=3 / weightb=1 / open_gop=0 / weightp=2 / keyint=250 / keyint_min=23 / scenecut=40 / intra_refresh=0 / rc_lookahead=50 / rc=2pass / mbtree=1 / bitrate=11200 / ratetol=1.0 / qcomp=0.60 / qpmin=0 / qpmax=69 / qpstep=4 / cplxblur=20.0 / qblur=0.5 / vbv_maxrate=62500 / vbv_bufsize=78125 / nal_hrd=none / filler=0 / ip_ratio=1.40 / aq=1:1.00
Language : Multiple languages
Default : Yes
Forced : Yes

Audio #1
ID : 2
Format : AC-3
Format/Info : Audio Coding 3
Commercial name : Dolby Digital
Codec ID : A_AC3
Duration : 49 min 12 s
Bit rate mode : Constant
Bit rate : 192 kb/s
Channel(s) : 2 channels
Channel layout : L R
Sampling rate : 48.0 kHz
Frame rate : 31.250 FPS (1536 SPF)
Compression mode : Lossy
Stream size : 67.6 MiB (2%)
Title : AC-3 2.0 @ 192 kb/s # DniproFilm
Language : Ukrainian
Service kind : Complete Main
Default : Yes
Forced : Yes

Audio #2
ID : 3
Format : AC-3
Format/Info : Audio Coding 3
Commercial name : Dolby Digital
Codec ID : A_AC3
Duration : 49 min 12 s
Bit rate mode : Constant
Bit rate : 640 kb/s
Channel(s) : 6 channels
Channel layout : L R C LFE Ls Rs
Sampling rate : 48.0 kHz
Frame rate : 31.250 FPS (1536 SPF)
Compression mode : Lossy
Stream size : 225 MiB (5%)
Title : AC-3 5.1 @ 640 kb/s
Language : English
Service kind : Complete Main
Default : No
Forced : No

Text #1
ID : 4
Format : UTF-8
Codec ID : S_TEXT/UTF8
Codec ID/Info : UTF-8 Plain Text
Duration : 43 min 51 s
Bit rate : 2 b/s
Count of elements : 26
Stream size : 797 Bytes (0%)
Title : Forced
Language : English
Default : No
Forced : No

Text #2
ID : 5
Format : UTF-8
Codec ID : S_TEXT/UTF8
Codec ID/Info : UTF-8 Plain Text
Duration : 47 min 59 s
Bit rate : 70 b/s
Count of elements : 751
Stream size : 24.6 KiB (0%)
Title : Full
Language : English
Default : No
Forced : No
Скріншоти











Подяка панам krigg070 та ssTAss.

Джерело:
Особиста оцінка: 8 - мені сподобалося



Авторський реліз (завантажувати можна без реєстрації)
 Трекер:    Зареєстрований   

Завантажити / скачати серіал українською



відео для новачків



 Зареєстрований:   2020-12-04 17:11
 Розмір:   55.62 GB 
 Оцінка серіалу:   9.5/10 (Голосів: 8)
   
bot 
робот


З нами з: 30.09.07
Востаннє: 26.05.05
Повідомлень: 27320

2020-12-02 19:27  
Тему перенесено з Серіали в HD до форуму Анонси релізів


Argentum

bot 
робот


З нами з: 30.09.07
Востаннє: 26.05.05
Повідомлень: 27320

2020-12-04 17:11  
Тему перенесено з Анонси релізів до форуму Серіали в HD


Argentum

Ваш часовий пояс: GMT + 2 Години

Нова тема   Відповісти