Без правил / Країна джунглів / Jungleland (2019) 1080p Eng | Sub Ukr/Eng

Нові коментарі

Нова тема   Відповісти
Автор Повідомлення
Anonymous 







2020-12-02 18:21  
Без правил / Країна джунглів / Jungleland (2019) 1080p Eng | Sub Ukr/Eng

Без правил / Країна джунглів / Jungleland (2019) 1080p Eng | Sub Ukr/Eng


Жанр: драма
Країна: Велика Британія, США



Кінокомпанія: Romulus Entertainment, Scott Free Productions
Режисер: Макс Вінклер / Max Winkler
Актори: Чарлі Ганнем / Charlie Hunnam, Джек О’Коннелл / Jack O'Connell, Джессіка Барден / Jessica Barden, Джонатан Мейджерс / Jonathan Majors, Френ Кранц / Fran Kranz та інші.

Сюжет:
Двоє братів (Чарлі Ганнем та Джек О’Коннелл) намагаються вирватись зі злиднів, вдень працюючи у підпільній швейній майстерні, а вночі беручи участь у підпільних боксерських поєдинках. Марячи перемогою у бою за виграш у 100 000 доларів, вони погоджуються на послугу місцевому гангстеру - переправити дівчину (Джессіка Барден) у Неваду.
Офіційний трейлер:

Рейтинг MPAA: R - особам до 17 років обов'язкова присутність батьків або дорослого опікуна
Вікова категорія: 16+
Тривалість: 01:29:45
Якість: 1080p
Відео:
кодек:
розмір кадру: 1916х1030
бітрейт: 5059 кб/с

Аудіо:
мова: англійська
переклад: оригінал
кодек: 5.1
бітрейт: 384 кб/с

Субтитри # 1:
мова: українська
тип: програмні (м'які)
формат: *.srt
переклад: офіційний, Анастасія Жищинська

Субтитри # 2:
мова: англійська
тип: програмні (м'які)
формат: *.srt
Info
Код:
Complete name               : Jungleland (2019) [Eng, sub.Ukr,Eng] 1080p [Hurtom].
Format                      :
Format version              : Version 4
File size                   : 3.41 GiB
Duration                    : 1 h 29 min
Overall bit rate            : 5 445 kb/s
Movie name                  : Без правил / Країна джунглів / Jungleland (2019) [Eng, sub.Ukr,Eng] 1080p [Hurtom]
Encoded date                : UTC 2020-12-02 14:49:29
Writing application         : v51.0.0 ('I Wish') 64-bit
Writing library             : libebml v1.4.0 + v1.6.2
Cover                       : Yes
Attachments                 : cover.jpg

Video
ID                          : 1
Format                      : AVC
Format/Info                 : Advanced Video Codec
Format profile              : [email protected]
Format settings             : CABAC / 4 Ref Frames
Format settings, CABAC      : Yes
Format settings, Reference  : 4 frames
Codec ID                    : V_MPEG4/ISO/AVC
Duration                    : 1 h 29 min
Bit rate                    : 5 059 kb/s
Width                       : 1 916 pixels
Height                      : 1 030 pixels
Display aspect ratio        : 1.85:1
Frame rate mode             : Constant
Frame rate                  : 23.976 (24000/1001) FPS
Color space                 : YUV
Chroma subsampling          : 4:2:0
Bit depth                   : 8 bits
Scan type                   : Progressive
Bits/(Pixel*Frame)          : 0.107
Stream size                 : 3.17 GiB (93%)
Title                       : Без правил / Країна джунглів / Jungleland (2019) 1080p [FGT]
Language                    : English
Default                     : Yes
Forced                      : No
Color range                 : Limited
Color primaries             : BT.709
Transfer characteristics    : BT.709
Matrix coefficients         : BT.709

Audio
ID                          : 2
Format                      : AC-3
Format/Info                 : Audio Coding 3
Commercial name             : Dolby Digital
Codec ID                    : A_AC3
Duration                    : 1 h 29 min
Bit rate mode               : Constant
Bit rate                    : 384 kb/s
Channel(s)                  : 6 channels
Channel layout              : L R C LFE Ls Rs
Sampling rate               : 48.0 kHz
Frame rate                  : 31.250 FPS (1536 SPF)
Compression mode            : Lossy
Stream size                 : 247 MiB (7%)
Language                    : English
Service kind                : Complete Main
Default                     : Yes
Forced                      : No

Text #1
ID                          : 3
Format                      : UTF-8
Codec ID                    : S_TEXT/UTF8
Codec ID/Info               : UTF-8 Plain Text
Duration                    : 1 h 29 min
Bit rate                    : 78 b/s
Count of elements           : 1190
Stream size                 : 51.3 KiB (0%)
Title                       : Ukr Full
Language                    : Ukrainian
Default                     : Yes
Forced                      : Yes

Text #2
ID                          : 4
Format                      : UTF-8
Codec ID                    : S_TEXT/UTF8
Codec ID/Info               : UTF-8 Plain Text
Duration                    : 1 h 25 min
Bit rate                    : 59 b/s
Count of elements           : 1220
Stream size                 : 37.0 KiB (0%)
Title                       : Eng Full
Language                    : English
Default                     : No
Forced                      : No



Джерело: &
Подяка за надані субтитри п.subTrader (subscene.com)

У випадку появи українського озвучення реліз буде оновлено.


 Трекер:    Зареєстрований   

Завантажити / скачати фільм українською



відео для новачків



 Зареєстрований:   2020-12-02 18:21
 Розмір:   3.41 GB 
 Оцінка фільму:   9.8/10 (Голосів: 6)
 ЗАЛИШАЙТЕСЬ ЯКОМОГА ДОВШЕ НА РОЗДАЧІ! ЗАВАНТАЖИВ САМ - ДАЙ ЗАВАНТАЖИТИ ІНШИМ!
   
Ваш часовий пояс: GMT + 2 Години

Нова тема   Відповісти