Всі жінки відьми (Сезон 8 ) / Charmed (Season 8 ) (1080p), Ukr ( 2005-2006 )

Нові коментарі

Нова тема   Відповісти
Останній раз роздавалося marinich (2021-03-02)
Автор Повідомлення
Oxysims 
Новенький


З нами з: 07.11.16
Востаннє: 01.03.21
Повідомлень: 15

2020-12-01 21:47  
Всі жінки відьми (Сезон 8 ) / Charmed (Season8 ) (1080p), Ukr ( 2005-2006 )

Всі жінки відьми (Сезон 8 ) / Charmed (Season 8 ) (1080p), Ukr ( 2005-2006 )


Жанр: фентезі, мелодрама, комедія
Країна: США



Кінокомпанія: Spelling Television
Режисер: James L. Conway, Mel Damski, Derek E. Johansen, Jon Paré
Актори: Холлі Марі Комбс, Алісса Мілано, Роуз МакГоун, Кейлі Куоко

Сюжет:
Убивши Занку та інсценувавши власну смерть у жахливому вибуху, сестри Галлівел змінюють зовнішність та імена. Тепер вони Дженні, Джулі і Джо Беннет, а будинок належить Вікторові — їхньому батьку. Лише Пейдж починає мучити дивний заклик. Слідуючи за ним, вона зустрічає молоду відьму Біллі Дженкінс[en]. Дізнавшись, що двоюрідні сестри Беннет і є сестрами Галлівел, вона просить їх навчити її майстерності магії. Сестри змушені прийняти свою справжню зовнішність, коли за їх зникнення береться агент Мерфі з ФБР. Трохи згодом виявляється, що Біллі шукає свою сестру, яка зникла п'ятнадцять років тому.
Янгол Смерті хоче вбити Лео і тому Пайпер змушена заморозити його, Янгол Долі обіцяє повернути його у разі перемоги Чародійок у Великій Битві. Що це за битва, стає відомо лише в останніх серіях. Чародійки вбивають головних лиходіїв сезону — Тріаду, а Біллі знищує свою сестру-демона Крісті. В останній серії зустрічаються всі відомі нам покоління Галлівел — хто з минулого, хто з майбутнього.


Тривалість: 1 серія: 42:00 (цілком серій: 22)
Перелік серій
01.Still Charmed & Kicking
02.Malice in Wonderland
03.Run, Piper, Run
04.Desperate Housewitches
05.Rewitched
06.Kill Billie Vol. 1
07.The Lost Picture Show
08.Battle of the Hexes
09.Hulkus Pocus
10.Vaya Con Leos
11.Mr. & Mrs. Witch
12.Payback's a Witch
13.Repo Manor
14.12 Angry Zen
15.The Last Temptation of Christy
16.Engaged and Confused
17.Generation Hex
18.The Torn Identity
19.The Jung and the Restless
20.Gone with the Witches
21.Kill Billie Vol. 2
22.Forever Charmed
Якість:
Відео:
розмір кадру: 1920 х 1080
бітрейт: 7 285кб/с

Аудіо:
мова: українська
переклад: багатоголосий закадровий
кодек: 2.0
бітрейт: 192кб/с

Джерело озвучення:
Info
General
Complete name :Charmed\Season 8\Charmed.S08E01.Still Charmed & Kicking.mp4
Format : MPEG-4
Format profile : Base Media / Version 2
Codec ID : mp42 (mp42/mp41)
File size : 2.24 GiB
Duration : 42 min 12 s
Overall bit rate mode : Variable
Overall bit rate : 7 605 kb/s
Encoded date : UTC 2020-11-25 18:46:40
Tagged date : UTC 2020-11-25 18:48:29
TIM : 00:00:00:00
TSC : 24000
TSZ : 1001

Video
ID : 1
Format : HEVC
Format/Info : High Efficiency Video Coding
Format profile : [email protected]@Main
Codec ID : hvc1
Codec ID/Info : High Efficiency Video Coding
Duration : 42 min 12 s
Bit rate : 7 285 kb/s
Width : 1 920 pixels
Height : 1 080 pixels
Display aspect ratio : 16:9
Frame rate mode : Constant
Frame rate : 23.976 (24000/1001) FPS
Color space : YUV
Chroma subsampling : 4:2:0
Bit depth : 8 bits
Bits/(Pixel*Frame) : 0.147
Stream size : 2.15 GiB (96%)
Language : English
Encoded date : UTC 2020-11-25 18:46:40
Tagged date : UTC 2020-11-25 18:46:40
Codec configuration box : hvcC

Audio
ID : 2
Format : LC
Format/Info : Advanced Audio Codec Low Complexity
Codec ID : mp4a-40-2
Duration : 42 min 12 s
Source duration : 42 min 12 s
Bit rate mode : Variable
Bit rate : 317 kb/s
Maximum bit rate : 393 kb/s
Channel(s) : 2 channels
Channel layout : L R
Sampling rate : 48.0 kHz
Frame rate : 46.875 FPS (1024 SPF)
Compression mode : Lossy
Stream size : 95.8 MiB (4%)
Source stream size : 95.8 MiB (4%)
Encoded date : UTC 2020-11-25 18:46:40
Tagged date : UTC 2020-11-25 18:46:40
Скріншоти









Особиста оцінка: 9 - давно не бачив настільки якісне кіно


 Трекер:    Зареєстрований   

Завантажити / скачати серіал українською



відео для новачків



 Зареєстрований:   2020-12-01 21:47
 Розмір:   48.9 GB 
 Оцінка серіалу:   10/10 (Голосів: 3)
   
marinich 
Частий відвідувач


З нами з: 05.03.11
Востаннє: 02.03.21
Повідомлень: 49

2020-12-06 11:52  
6,7 сезони будуть?
Oxysims 
Новенький


З нами з: 07.11.16
Востаннє: 01.03.21
Повідомлень: 15

2020-12-06 13:05  
marinich
Може і будуть але не від мене. З 6-м і 7-м сезонами трабли з синхронізацією відео та аудіо.

krigg070 
Відео Гуртом - фільмокрай
Відео Гуртом - фільмокрай


З нами з: 29.10.14
Востаннє: 02.03.21
Повідомлень: 1977

2020-12-06 17:39  
Oxysims написано:
Може і будуть але не від мене. З 6-м і 7-м сезонами трабли з синхронізацією відео та аудіо.

https://fex.net/uk/s/7r5vz7a - тут є новіші записи з ТЕТ і деякі сезони з НЛО. Записи до деяких серій неповні.
Може щось пригодиться.

Oxysims 
Новенький


З нами з: 07.11.16
Востаннє: 01.03.21
Повідомлень: 15

2020-12-06 21:03  
Там відео в 1080р на 2 хвилини довше за аудіо з українським дубляжем - серія з аудіо доріжкою на українській мові триває 42:23, серія 1080р триває 44:22. Тут або по сценово обрізати відео, щоб підігнати під тривалість українського аудіо або залишити відео на всю тривалість, але будуть фрагменти без аудіо. Я цим займатися не буду.
McNiL 
Частий відвідувач


З нами з: 01.02.13
Востаннє: 02.03.21
Повідомлень: 35

2021-02-14 14:19  
Oxysims, Будь ласка перевiр приватнi повiдомлення
Ваш часовий пояс: GMT + 2 Години

Нова тема   Відповісти