Чемпіонат Англії 2020/21 | Челсі - Тоттенгем | 10 тур | Setanta Sports (29.11.2020) 1080p

Нові коментарі

Нова тема   Відповісти

Увійдіть, щоб проголосувати
Автор Повідомлення
misamisk 
Поважний учасник


З нами з: 16.10.17
Востаннє: 08.03.21
Повідомлень: 157

2020-11-30 12:15  
Чемпіонат Англії 2020/21 | Челсі - Тоттенгем | 10 тур | Setanta Sports (29.11.2020) 1080p

Чемпіонат Англії 2020/21 | Челсі - Тоттенгем | 10 тур | Setanta Sports (29.11.2020) 1080p


Телеканал: Setanta Sports Ukraine
Опис:
Сто шістдесят восьме "Лондонське дербі" між "Челсі" і "Тоттенгемом" відбулося 29 листопада 2020 року у Лондоні на "Стемфорд Брідж".

Матч обслуговували:
Рефері: Пол Тірні
Асистенти рефері: Лі Беттс, Йан Хассін
Четвертий арбітр: Майк Дін
VAR: Крейг Поусон
Асистент VAR: Стефан Чайлд

Коментатор: Юрій Кириченко


Тривалість: 01:51:29
Якість:
Відео:
кодек:
розмір кадру: 1920 x 1080
бітрейт: 4000 кб/с

Аудіо:
мова: українська
переклад: одноголосий закадровий
кодек: 2.0
бітрейт: 320 кб/с
Стартові склади
Info
General
Unique ID : 318793371863379518566833272024342992912 (0xEFD55EBE817368631DDB038686141810)
Complete name : EPL.Matchday.10.Chelsea-Tottenham.29.11.2020..
Format :
Format version : Version 4
File size : 3.37 GiB
Duration : 1 h 51 min
Overall bit rate mode : Variable
Overall bit rate : 4 324 kb/s
Movie name : English Premier League 2020/21. Matchday 10. Chelsea - Tottenham Hotspur
Encoded date : UTC 2020-11-30 09:15:55
Writing application : v24.0.0 ('Beyond The Pale') 64-bit
Writing library : libebml v1.3.6 + v1.4.9

Video
ID : 1
Format : AVC
Format/Info : Advanced Video Codec
Format profile : [email protected]
Format settings : CABAC / 2 Ref Frames
Format settings, CABAC : Yes
Format settings, Reference frames : 2 frames
Format settings, GOP : M=1, N=25
Codec ID : V_MPEG4/ISO/AVC
Duration : 1 h 51 min
Bit rate mode : Variable
Bit rate : 4 001 kb/s
Maximum bit rate : 768 kb/s
Width : 1 920 pixels
Height : 1 080 pixels
Display aspect ratio : 16:9
Frame rate mode : Constant
Frame rate : 29.970 (30000/1001) FPS
Original frame rate : 25.000 FPS
Color space : YUV
Chroma subsampling : 4:2:0
Bit depth : 8 bits
Scan type : Progressive
Bits/(Pixel*Frame) : 0.064
Stream size : 3.12 GiB (93%)
Title : English Premier League 2020/21. Matchday 10. Chelsea - Tottenham Hotspur
Language : English
Default : Yes
Forced : No

Audio
ID : 2
Format : LC
Format/Info : Advanced Audio Codec Low Complexity
Codec ID : A_AAC-2
Duration : 1 h 51 min
Bit rate : 320 kb/s
Channel(s) : 2 channels
Channel layout : L R
Sampling rate : 44.1 kHz
Frame rate : 43.066 FPS (1024 SPF)
Compression mode : Lossy
Stream size : 255 MiB (7%)
Title : Commentaries by Yuriy Kyrychenko
Language : Ukrainian
Default : Yes
Forced : No
Скріншоти
Особиста оцінка: 8 - мені сподобалося


Золотий реліз (завантажене не впливає на рейтинг)
 Трекер:    Зареєстрований   

Завантажити / скачати торрент



відео для новачків



 Зареєстрований:   2020-11-30 12:15
 Розмір:   3.37 GB 
 Оцінка:   9/10 (Голосів: 1)
   
Ваш часовий пояс: GMT + 2 Години

Нова тема   Відповісти