Рапунцель: Заплутана історія / Tangled (2010) UHD Remux 4K 2160p HDR H.265 Ukr/Eng | Sub Ukr/Eng

Нові коментарі

Нова тема   Відповісти
Автор Повідомлення
RoMeL 
Відео Гуртом - підтримка та поширення
Відео Гуртом - підтримка та поширення


З нами з: 09.07.08
Востаннє: 23.02.21
Повідомлень: 328

2020-11-30 01:42  
Рапунцель: Заплутана історія / Tangled (2010) UHD Remux 4K 2160p HDR H.265 Ukr/Eng | Sub Ukr/Eng



Жанр: мюзикл, фентезі, мелодрама, комедія, сімейний
Країна: США



Кінокомпанія: Walt Disney Pictures
Режисери: Натан Грено, Байрон Говард
Ролі озвучують: Менді Мур, Захарі Леві, Донна Мерфі, Рон Перлман, М. До. Гейні, Джефрі Тембор, Бред Геррет, Пол Ф. Томпкінс, Річард Кіл, Делані Роуз Стейн.

Сюжет:
Якщо ви думаєте, що найцікавіше в ній - це 21 метр чарівного золотистого волосся, то ви помиляєтеся! Замкнута в башті і відчайдушно шукає пригод, Рапунцель вирішує використовувати Флінна в якості квитка у великий світ. Спочатку комічне викрадення, потім безневинний шантаж - і ось наші герої на волі. Разом з головними героями в авантюрну подорож вирушають бравий кінь-шукач Максимус, ручний хамелеон і зграя навіжених розбійників...


Тривалість: 01:40:57
Якість: Remux 4K 2160p HDR H.265
Відео:
кодек: H.265 (HEVC)
розмір кадру: 3840 х 2160
бітрейт: 52,5 Мбіт/сек
бітова глибина: 10 біт
кольоровий простір: BT.2020 (HDR)

Увага! Перед завантаженням переконайтесь, що ваш пристрій відтворення (та/або ПЗ) підтримує H.265 (HEVC)

Аудіо # 1:
мова: українська
переклад: професійний дубльований | Студія LeDoyen
кодек: AC-3 5.1
бітрейт: 640 Кбіт/с

Аудіо # 2:
мова: англійська
переклад: оригінал
кодек: TrueHD Atmos 7.1
бітрейт: 7753 кб/с

Аудіо # 3:
мова: англійська
переклад: оригінал
кодек: 5.1
бітрейт: 1509 кб/с

Аудіо # 4:
мова: англійська
переклад: оригінал
кодек: AC-3 5.1
бітрейт: 640 кб/с

Субтитри # 1:
мова: українська (Full)
тип: програмні (м'які)
формат: *.srt

Субтитри # 2-3:
мова: англійська (Full, SDH)
тип: програмні (м'які)
формат: *.srt
Info
Код:
General
Unique ID                                : 265264745312212115759020183111957150472 (0xC79021B1C36E7E8B47725A8F9206FB08)
Complete name                            : /Volumes/Download/Movies/Tangled.2010.Remux.2160p.HDR.[Ukr.Eng].
Format                                   :
Format version                           : Version 4
File size                                : 44.2 GiB
Duration                                 : 1 h 40 min
Overall bit rate mode                    : Variable
Overall bit rate                         : 62.7 Mb/s
Movie name                               : Tangled.2010.Remux.2160p.HDR.[Ukr.Eng]
Encoded date                             : UTC 2020-11-29 22:40:08
Writing application                      : v47.0.0 ('Black Flag') 64-bit
Writing library                          : libebml v1.3.10 + v1.5.2
Cover                                    : Yes
Attachments                              : Cover.jpg

Video
ID                                       : 1
Format                                   : HEVC
Format/Info                              : High Efficiency Video Coding
Format profile                           : Main [email protected]@High
HDR format                               : SMPTE ST 2086, HDR10 compatible
Codec ID                                 : V_MPEGH/ISO/HEVC
Duration                                 : 1 h 40 min
Bit rate                                 : 52.5 Mb/s
Width                                    : 3 840 pixels
Height                                   : 2 160 pixels
Display aspect ratio                     : 16:9
Frame rate mode                          : Constant
Frame rate                               : 23.976 (24000/1001) FPS
Color space                              : YUV
Chroma subsampling                       : 4:2:0 (Type 2)
Bit depth                                : 10 bits
Bits/(Pixel*Frame)                       : 0.264
Stream size                              : 36.8 GiB (83%)
Title                                    : MPEG-H HEVC Video / 52493 kbps / 2160p / 23.976 fps / 16:9 / Main 10 @ Level 5.1 @ High / 10 bits / HDR10 / BT.2020
Writing library                          : ATEME Titan File 3.9.0 (4.9.0.0)
Language                                 : English
Default                                  : No
Forced                                   : No
Color range                              : Limited
Color primaries                          : BT.2020
Transfer characteristics                 : PQ
Matrix coefficients                      : BT.2020 non-constant
Mastering display color primaries        : Display P3
Mastering display luminance              : min: 0.0001 cd/m2, max: 1000 cd/m2

Audio #1
ID                                       : 2
Format                                   : AC-3
Format/Info                              : Audio Coding 3
Commercial name                          : Dolby Digital
Codec ID                                 : A_AC3
Duration                                 : 1 h 40 min
Bit rate mode                            : Constant
Bit rate                                 : 640 kb/s
Channel(s)                               : 6 channels
Channel layout                           : L R C LFE Ls Rs
Sampling rate                            : 48.0 kHz
Frame rate                               : 31.250 FPS (1536 SPF)
Compression mode                         : Lossy
Stream size                              : 462 MiB (1%)
Title                                    : / 5.1 Ch / 640 kbps / ПД / Blu-Ray / Студія LeDoyen
Language                                 : Ukrainian
Service kind                             : Complete Main
Default                                  : Yes
Forced                                   : No

Audio #2
ID                                       : 3
Format                                   : MLP FBA 16-ch
Format/Info                              : Meridian Lossless Packing FBA with 16-channel presentation
Commercial name                          : Dolby TrueHD with Dolby Atmos
Codec ID                                 : A_TRUEHD
Duration                                 : 1 h 40 min
Bit rate mode                            : Variable
Bit rate                                 : 7 753 kb/s
Maximum bit rate                         : 9 480 kb/s
Channel(s)                               : 8 channels
Channel layout                           : L R C LFE Ls Rs Lb Rb
Sampling rate                            : 48.0 kHz
Frame rate                               : 1 200.000 FPS (40 SPF)
Compression mode                         : Lossless
Stream size                              : 5.43 GiB (12%)
Title                                    : Dolby TrueHD/Atmos Audio / 7.1 / 48 kHz / 7751 kbps / 24-bit
Language                                 : English
Default                                  : No
Forced                                   : No
Number of dynamic objects                : 13
Bed channel count                        : 1 channel
Bed channel configuration                : LFE

Audio #3
ID                                       : 4
Format                                   :
Format/Info                              : Digital Theater Systems
Codec ID                                 : A_DTS
Duration                                 : 1 h 40 min
Bit rate mode                            : Constant
Bit rate                                 : 1 509 kb/s
Channel(s)                               : 6 channels
Channel layout                           : C L R Ls Rs LFE
Sampling rate                            : 48.0 kHz
Frame rate                               : 93.750 FPS (512 SPF)
Bit depth                                : 24 bits
Compression mode                         : Lossy
Delay relative to video                  : 11 ms
Stream size                              : 1.06 GiB (2%)
Title                                    : / 5.1 Ch / 1509 kbps / Original
Language                                 : English
Default                                  : No
Forced                                   : No

Audio #4
ID                                       : 5
Format                                   : AC-3
Format/Info                              : Audio Coding 3
Commercial name                          : Dolby Digital
Codec ID                                 : A_AC3
Duration                                 : 1 h 40 min
Bit rate mode                            : Constant
Bit rate                                 : 640 kb/s
Channel(s)                               : 6 channels
Channel layout                           : L R C LFE Ls Rs
Sampling rate                            : 48.0 kHz
Frame rate                               : 31.250 FPS (1536 SPF)
Compression mode                         : Lossy
Stream size                              : 459 MiB (1%)
Title                                    : Compatibility Track / Dolby Digital Audio / 5.1 / 48 kHz / 640 kbps
Language                                 : English
Service kind                             : Complete Main
Default                                  : No
Forced                                   : No

Text #1
ID                                       : 6
Format                                   : UTF-8
Codec ID                                 : S_TEXT/UTF8
Codec ID/Info                            : UTF-8 Plain Text
Duration                                 : 1 h 30 min
Bit rate                                 : 71 b/s
Count of elements                        : 924
Stream size                              : 47.2 KiB (0%)
Title                                    : Full
Language                                 : Ukrainian
Default                                  : No
Forced                                   : No

Text #2
ID                                       : 7
Format                                   : UTF-8
Codec ID                                 : S_TEXT/UTF8
Codec ID/Info                            : UTF-8 Plain Text
Duration                                 : 1 h 39 min
Bit rate                                 : 45 b/s
Count of elements                        : 920
Stream size                              : 33.1 KiB (0%)
Title                                    : Full
Language                                 : English
Default                                  : No
Forced                                   : No

Text #3
ID                                       : 8
Format                                   : UTF-8
Codec ID                                 : S_TEXT/UTF8
Codec ID/Info                            : UTF-8 Plain Text
Duration                                 : 1 h 40 min
Bit rate                                 : 49 b/s
Count of elements                        : 1265
Stream size                              : 36.2 KiB (0%)
Title                                    : SDH
Language                                 : English
Default                                  : No
Forced                                   : No
Скріншоти










Джерело: &
Особиста оцінка: 10 - без зайвих вагань рекомендую всім!


Золотий реліз (завантажене не впливає на рейтинг)
 Трекер:    Зареєстрований   

Завантажити / скачати мультфільм українською



відео для новачків



 Зареєстрований:   2020-12-01 17:40
 Розмір:   44.24 GB 
 Оцінка мультфільму:   9.5/10 (Голосів: 6)
   
Інші релізи
   Рапунцель: Заплутана історія / Tangled (2010) 1080p Ukr/Eng | Український відеоряд AlexPechkin  11 / 0   6.47 GB   2020-04-16 22:55 
   Рапунцель: Заплутана історія / Tangled (2010) 1080p H.265 Ukr/Eng | Sub Ukr/Eng -Star-Lord-  10 / 0   4.9 GB   2020-01-30 22:50 
   Рапунцель: Заплутана історія / Tangled (2010) 1080p 3D [Half OverUnder] Ukr/Eng | Sub Ukr/Eng igor911  3 / 0   8.96 GB   2015-01-01 10:27 
   Рапунцель: Заплутана історія / Tangled (2010) 720p Ukr/Eng | Sub Ukr/Eng braveboy  15 / 0   4.36 GB   2013-03-05 05:30 
   Рапунцель: Заплутана історія / Tangled (2010) AVC | Sub Ukr/Eng | Український відеоряд FaB0SS  9 / 0   1.45 GB   2012-07-26 16:49 
   Рапунцель: Заплутана історія / Tangled (2010) | Український відеоряд FaB0SS  11 / 0   1.45 GB   2012-07-20 12:49 
   Рапунцель: Заплутана історія / Tangled (2010) DVD 9 | Ліцензія Beffis  1 / 0   6.2 GB   2012-03-15 11:44 
   Рапунцель: Заплутана історія / Tangled (2010) Blu-Ray 3D Multi | Sub Multi [Blu-Ray 3D] PhilosophUA  0 / 0   34.49 GB   2011-04-06 08:24 
   Рапунцель: Заплутана історія / Tangled (2010) Ukr/Eng | Sub Ukr/Eng karvai0  4 / 0   2.18 GB   2011-03-19 12:02 
   Рапунцель: Заплутана історія / Tangled (2010) 1080p Ukr/Eng | Sub Ukr/Eng Denoks  10 / 0   7.51 GB   2011-03-18 14:55 
bot 
робот


З нами з: 30.09.07
Востаннє: 26.05.05
Повідомлень: 27257

2020-11-30 01:42  
Тему перенесено з Мультфільми в HD до форуму Анонси релізів


RoMeL

bot 
робот


З нами з: 30.09.07
Востаннє: 26.05.05
Повідомлень: 27257

2020-12-01 17:40  
Тему перенесено з Анонси релізів до форуму Мультфільми в HD


RoMeL

TPEM 
Відео Гуртом - фільмокрай
Відео Гуртом - фільмокрай


З нами з: 30.01.09
Востаннє: 16.02.21
Повідомлень: 414

2020-12-02 20:36  
щось кольори туже тьмяні
trofum911 
Поважний учасник


З нами з: 31.01.12
Востаннє: 24.02.21
Повідомлень: 179

2020-12-04 19:15  
TPEM
Потрібен телевізор/монітор і тд, що може відтворювати HDR контент або плеєр, що вміє перетворювати HDR конетнт в SDR, інакше кольори будуть такими ніби їх випрали, але не використовували первлоль колор меджік.

Ваш часовий пояс: GMT + 2 Години

Нова тема   Відповісти