Посіпаки / Minions (2015) UHD Remux 4K 2160p HDR H.265 Ukr/Eng | Sub Ukr/Eng

Нові коментарі

Нова тема   Відповісти
Автор Повідомлення
RoMeL 
Відео Гуртом - підтримка та поширення
Відео Гуртом - підтримка та поширення


З нами з: 09.07.08
Востаннє: 17.01.21
Повідомлень: 319

2020-11-30 00:09  
Посіпаки / Minions (2015) UHD Remux 4K 2160p HDR H.265 Ukr/Eng | Sub Ukr/Eng



Жанр: анімація, комедія, сімейний
Країна: США



Кінокомпанія: Illumination Entertainment
Режисери: Кайл Балда / Kyle Balda та П'єр Соффін / Pierre Coffin
Ролі озвучують: Сандра Баллок / Sandra Bullock, Джон Гемм / Jon Hamm, Майкл Кітон / Michael Keaton, Еллісон Дженні / Allison Janney, Стів Куґан / Steve Coogan, Дженіфер Сoндерс / Jennifer Saunders, Джефрі Раш / Geoffrey Rush, Стів Карелл / Steve Carell, П'єр Соффін / Pierre Coffin, Хіроюкі Санада / Hiroyuki Sanada та інші.

Сюжет:
Виявляється, невгамовні жовті Посіпаки пройшли довгий шлях еволюції від одноклітинних істот до розумних створінь. І в усі часи вони служили лише найбільш амбітним негідникам. Відсутність господаря їх пригнічує, і у пошуках нового боса Посіпаки вирушають на всесвітню конференцію лиходіїв. Тут і починаються пригоди…


Тривалість: 01:30:58
Якість: Remux 4K 2160p HDR H.265
Відео:
кодек: H.265 (HEVC)
розмір кадру: 3840 х 2160
бітрейт: 67,6 Мбіт/сек
бітова глибина: 10 біт
кольоровий простір: BT.2020 (HDR)

Увага! Перед завантаженням переконайтесь, що ваш пристрій відтворення (та/або ПЗ) підтримує H.265 (HEVC)

Аудіо # 1:
мова: українська
переклад: професійний дубльований
кодек: AC-3 5.1
бітрейт: 640 Кбіт/с

Аудіо # 2:
мова: англійська
переклад: оригінал
кодек: TrueHD Atmos 7.1
бітрейт: 5264 кб/с

Аудіо # 3:
мова: англійська
переклад: оригінал
кодек: AC-3 5.1
бітрейт: 640 кб/с

Субтитри # 1-2:
мова: українська (Forced, Full)
тип: програмні (м'які)
формат: *.srt

Субтитри # 3-4:
мова: англійська (Full, SDH)
тип: програмні (м'які)
формат: *.srt
Info
Код:
General
Unique ID                                : 313626203277730519095145530691445065695 (0xEBF235A9E63181B94B96017EE5FC07DF)
Complete name                            : /Volumes/Download/Movies/Minions.2015.Remux.2160p.HDR.[Ukr.Eng].
Format                                   :
Format version                           : Version 4
File size                                : 47.1 GiB
Duration                                 : 1 h 30 min
Overall bit rate mode                    : Variable
Overall bit rate                         : 74.1 Mb/s
Movie name                               : Minions.2015.Remux.2160p.HDR.[Ukr.Eng]
Encoded date                             : UTC 2020-11-24 18:12:36
Writing application                      : v47.0.0 ('Black Flag') 64-bit
Writing library                          : libebml v1.3.10 + v1.5.2

Video
ID                                       : 1
Format                                   : HEVC
Format/Info                              : High Efficiency Video Coding
Format profile                           : Main [email protected]@High
HDR format                               : SMPTE ST 2086, HDR10 compatible
Codec ID                                 : V_MPEGH/ISO/HEVC
Duration                                 : 1 h 30 min
Bit rate                                 : 67.6 Mb/s
Width                                    : 3 840 pixels
Height                                   : 2 160 pixels
Display aspect ratio                     : 16:9
Frame rate mode                          : Constant
Frame rate                               : 23.976 (24000/1001) FPS
Color space                              : YUV
Chroma subsampling                       : 4:2:0 (Type 2)
Bit depth                                : 10 bits
Bits/(Pixel*Frame)                       : 0.340
Stream size                              : 42.9 GiB (91%)
Title                                    : 67556 kbps / HEVC
Writing library                          : ATEME Titan File 3.8.3 (4.8.3.0)
Default                                  : Yes
Forced                                   : No
Color range                              : Limited
Color primaries                          : BT.2020
Transfer characteristics                 : PQ
Matrix coefficients                      : BT.2020 non-constant
Mastering display color primaries        : Display P3
Mastering display luminance              : min: 0.0050 cd/m2, max: 1000 cd/m2
Maximum Content Light Level              : 739 cd/m2
Maximum Frame-Average Light Level        : 331 cd/m2

Audio #1
ID                                       : 2
Format                                   : AC-3
Format/Info                              : Audio Coding 3
Commercial name                          : Dolby Digital
Codec ID                                 : A_AC3
Duration                                 : 1 h 30 min
Bit rate mode                            : Constant
Bit rate                                 : 640 kb/s
Channel(s)                               : 6 channels
Channel layout                           : L R C LFE Ls Rs
Sampling rate                            : 48.0 kHz
Frame rate                               : 31.250 FPS (1536 SPF)
Compression mode                         : Lossy
Stream size                              : 416 MiB (1%)
Title                                    : 5.1 @ 640 kbps
Language                                 : Ukrainian
Service kind                             : Complete Main
Default                                  : No
Forced                                   : Yes

Audio #2
ID                                       : 3
Format                                   : MLP FBA 16-ch
Format/Info                              : Meridian Lossless Packing FBA with 16-channel presentation
Commercial name                          : Dolby TrueHD with Dolby Atmos
Codec ID                                 : A_TRUEHD
Duration                                 : 1 h 30 min
Bit rate mode                            : Variable
Bit rate                                 : 5 264 kb/s
Maximum bit rate                         : 7 269 kb/s
Channel(s)                               : 8 channels
Channel layout                           : L R C LFE Ls Rs Lb Rb
Sampling rate                            : 48.0 kHz
Frame rate                               : 1 200.000 FPS (40 SPF)
Compression mode                         : Lossless
Stream size                              : 3.34 GiB (7%)
Title                                    : 5264 kbps / 24-bit
Default                                  : Yes
Forced                                   : No
Number of dynamic objects                : 11
Bed channel count                        : 1 channel
Bed channel configuration                : LFE

Audio #3
ID                                       : 4
Format                                   : AC-3
Format/Info                              : Audio Coding 3
Commercial name                          : Dolby Digital
Codec ID                                 : A_AC3
Duration                                 : 1 h 30 min
Bit rate mode                            : Constant
Bit rate                                 : 640 kb/s
Channel(s)                               : 6 channels
Channel layout                           : L R C LFE Ls Rs
Sampling rate                            : 48.0 kHz
Frame rate                               : 31.250 FPS (1536 SPF)
Compression mode                         : Lossy
Stream size                              : 416 MiB (1%)
Title                                    : 640 kbps / 16-bit
Language                                 : English
Service kind                             : Complete Main
Default                                  : No
Forced                                   : No

Text #1
ID                                       : 5
Format                                   : UTF-8
Codec ID                                 : S_TEXT/UTF8
Codec ID/Info                            : UTF-8 Plain Text
Duration                                 : 1 h 7 min
Bit rate                                 : 3 b/s
Count of elements                        : 39
Stream size                              : 1.49 KiB (0%)
Title                                    : Forced
Language                                 : Ukrainian
Default                                  : Yes
Forced                                   : Yes

Text #2
ID                                       : 6
Format                                   : UTF-8
Codec ID                                 : S_TEXT/UTF8
Codec ID/Info                            : UTF-8 Plain Text
Duration                                 : 1 h 29 min
Bit rate                                 : 52 b/s
Count of elements                        : 631
Stream size                              : 34.3 KiB (0%)
Title                                    : Full
Language                                 : Ukrainian
Default                                  : No
Forced                                   : No

Text #3
ID                                       : 7
Format                                   : UTF-8
Codec ID                                 : S_TEXT/UTF8
Codec ID/Info                            : UTF-8 Plain Text
Duration                                 : 1 h 28 min
Bit rate                                 : 38 b/s
Count of elements                        : 1077
Stream size                              : 25.1 KiB (0%)
Title                                    : Full
Language                                 : English
Default                                  : No
Forced                                   : No

Text #4
ID                                       : 8
Format                                   : UTF-8
Codec ID                                 : S_TEXT/UTF8
Codec ID/Info                            : UTF-8 Plain Text
Duration                                 : 1 h 30 min
Bit rate                                 : 59 b/s
Count of elements                        : 1686
Stream size                              : 39.7 KiB (0%)
Title                                    : SDH
Language                                 : English
Default                                  : No
Forced                                   : No

Скріншоти












Джерело: &
Особиста оцінка: 10 - без зайвих вагань рекомендую всім!


Золотий реліз (завантажене не впливає на рейтинг)
 Трекер:    Зареєстрований   

Завантажити / скачати мультфільм українською



відео для новачків



 Зареєстрований:   2020-11-30 13:33
 Розмір:   47.11 GB 
 Оцінка мультфільму:   8.8/10 (Голосів: 8)
   
Інші релізи
   Посіпаки / Minions (2015) Remux 1080p Ukr/Eng | Sub Ukr/Eng staf777  5 / 1   21.98 GB   2020-01-28 08:34 
   Посіпаки / Minions (2015) 1080p H.265 Ukr/Eng | Sub Ukr/Eng -Star-Lord-  25 / 0   6.38 GB   2019-07-29 21:50 
   Посіпаки / Minions (2015) 3D 1080p Ukr/Eng | Sub Ukr/Eng [Half OverUnder] Andick  3 / 0   10.89 GB   2015-11-22 08:23 
   Посіпаки / Minions (2015) AVC Ukr/Eng | Sub Ukr/Eng AngryBirdsUA  22 / 0   2.18 GB   2015-11-20 21:02 
   Посіпаки / Minions (2015) 720p-mini (60 fps) Drool  3 / 0   5.48 GB   2015-11-19 09:04 
   Посіпаки / Minions (2015) 720p Ukr/Eng | Sub Ukr/Eng Drool  24 / 0   3.8 GB   2015-11-19 09:00 
   Посіпаки / Minions (2015) patriot2305  55 / 0   1.45 GB   2015-11-15 13:42 
   Посіпаки / Minions (2015) 1080p Ukr/Eng | Sub Ukr/Eng 11FrYkT  15 / 0   8.26 GB   2015-11-15 09:23 
bot 
робот


З нами з: 30.09.07
Востаннє: 26.05.05
Повідомлень: 26926

2020-11-30 00:10  
Тему перенесено з Мультфільми в HD до форуму Анонси релізів


RoMeL

bot 
робот


З нами з: 30.09.07
Востаннє: 26.05.05
Повідомлень: 26926

2020-11-30 13:33  
Тему перенесено з Анонси релізів до форуму Мультфільми в HD


RoMeL

Ваш часовий пояс: GMT + 2 Години

Нова тема   Відповісти