Квіткарка (1 сезон) / Flower Shop Mysteries (TV Mini-Series) (2016) 1080p Ukr/Eng

Нові коментарі

Нова тема   Відповісти
Автор Повідомлення
Anonymous 







2020-11-29 22:24  
Квіткарка (1 сезон) / Flower Shop Mysteries (TV Mini-Series) (2016) 1080p Ukr/Eng

Квіткарка (1 сезон) / Flower Shop Mysteries (TV Mini-Series) (2016) 1080p Ukr/Eng


Жанр: детектив
Країна: США, Канада



Кінокомпанія: Hideaway Pictures, Flower shop Mystery Productions, HP Flowershop Mysteries Productions Ontario Inc.
Режисер: Бредлі Уолш
Актори: Брук Шилдс, Бреннан Елліотт, Кейт Драммонд, Селеста Дежардінс, Бо Бріджес, Дрю Вігевер, Деніел Кеш, Джеймс Кейд, Рейчел Кроуфорд, Рон Ліа
Квіткарка: Ні пари з вуст / Flower Shop Mystery: Mum's the Word (2016) 1080p Ukr/Eng

Квіткарка: Ні пари з вуст / Flower Shop Mystery: Mum's the Word (2016) 1080p Ukr/Eng

Квіткарка (1 сезон) / Flower Shop Mysteries (TV Mini-Series) (2016) 1080p Ukr/Eng




Сюжет:
Еббі Найт повертається в своє маленьке рідне містечко в якості юриста з Нью-Йорка. У день відкриття квіткового магазину її машина була пошкоджена кимось невідомим, хто тікав з місця вбивства. Під час власного розслідування вона зустрічає чарівного колишнього солдата, який тепер працює барменом, і співпрацює з ним в пошуках відповідей.


Тривалість: 01:26:31
Info
General
Unique ID : 174592179548136794083429912788580057641 (0x83593B0CD87BFBE099D1EEC3F1624229)
Format :
Format version : Version 4
File size : 1.76 GiB
Duration : 1 h 26 min
Overall bit rate : 2 918 kb/s
Encoded date : UTC 2020-11-29 09:06:36
Writing application : v6.1.0 ('Old Devil') built on Mar 4 2013 09:10:42
Writing library : libebml v1.3.0 + v1.4.0

Video
ID : 1
Format : AVC
Format/Info : Advanced Video Codec
Format profile : [email protected]
Format settings : CABAC / 4 Ref Frames
Format settings, CABAC : Yes
Format settings, Reference : 4 frames
Codec ID : V_MPEG4/ISO/AVC
Duration : 1 h 26 min
Nominal bit rate : 2 500 kb/s
Width : 1 920 pixels
Height : 1 080 pixels
Display aspect ratio : 16:9
Frame rate mode : Constant
Frame rate : 23.976 (23976/1000) FPS
Color space : YUV
Chroma subsampling : 4:2:0
Bit depth : 8 bits
Scan type : Progressive
Bits/(Pixel*Frame) : 0.050
Writing library : core 152 r2851M ba24899
Encoding settings : cabac=1 / ref=4 / deblock=1:-1:-1 / analyse=0x3:0x113 / me=umh / subme=9 / psy=1 / psy_rd=1.00:0.15 / mixed_ref=1 / me_range=24 / chroma_me=1 / trellis=2 / 8x8dct=1 / cqm=0 / deadzone=21,11 / fast_pskip=1 / chroma_qp_offset=-3 / threads=16 / lookahead_threads=4 / sliced_threads=0 / nr=0 / decimate=1 / interlaced=0 / bluray_compat=0 / constrained_intra=0 / bframes=3 / b_pyramid=2 / b_adapt=2 / b_bias=0 / direct=3 / weightb=1 / open_gop=0 / weightp=2 / keyint=250 / keyint_min=25 / scenecut=40 / intra_refresh=0 / rc_lookahead=50 / rc=2pass / mbtree=1 / bitrate=2500 / ratetol=1.0 / qcomp=0.60 / qpmin=0 / qpmax=69 / qpstep=4 / cplxblur=20.0 / qblur=0.5 / vbv_maxrate=31250 / vbv_bufsize=31250 / nal_hrd=none / filler=0 / ip_ratio=1.40 / aq=3:1.00
Default : Yes
Forced : No

Audio #1
ID : 2
Format : AC-3
Format/Info : Audio Coding 3
Commercial name : Dolby Digital
Codec ID : A_AC3
Duration : 1 h 26 min
Bit rate mode : Constant
Bit rate : 192 kb/s
Channel(s) : 2 channels
Channel layout : L R
Sampling rate : 48.0 kHz
Frame rate : 31.250 FPS (1536 SPF)
Compression mode : Lossy
Delay relative to video : -43 ms
Stream size : 119 MiB (7%)
Title : UKR (Indigo)
Language : Ukrainian
Service kind : Complete Main
Default : Yes
Forced : Yes

Audio #2
ID : 3
Format : LC
Format/Info : Advanced Audio Codec Low Complexity
Codec ID : A_AAC-2
Duration : 1 h 26 min
Channel(s) : 6 channels
Channel layout : C L R Ls Rs LFE
Sampling rate : 48.0 kHz
Frame rate : 46.875 FPS (1024 SPF)
Compression mode : Lossy
Delay relative to video : -43 ms
Title : ENG
Language : English
Default : No
Forced : No
Скріншоти





Квіткарка: Смерть у розквіті / Flower Shop Mystery: Snipped in the Bud (2016) 1080p Ukr/Eng

Квіткарка: Смерть у розквіті / Flower Shop Mystery: Snipped in the Bud (2016) 1080p Ukr/Eng

Квіткарка (1 сезон) / Flower Shop Mysteries (TV Mini-Series) (2016) 1080p Ukr/Eng




Сюжет:
Колишня юрист флорист Еббі доставляє чорні троянди в коледж. Повернувшись через кілька хвилин, вона знаходить вбитого старого суперника. Вона головний підозрюваний. Еббі береться за розслідування, в якому їй допомагає колишній хлопець приватний детектив.


Тривалість: 01:26:32
Info
General
Unique ID : 199118209151749298576383470976728470724 (0x95CCC5AB7A9DDDAB8A19C8D741D294C4)
Format :
Format version : Version 4
File size : 1.76 GiB
Duration : 1 h 26 min
Overall bit rate : 2 919 kb/s
Encoded date : UTC 2020-11-29 09:32:37
Writing application : v6.1.0 ('Old Devil') built on Mar 4 2013 09:10:42
Writing library : libebml v1.3.0 + v1.4.0

Video
ID : 1
Format : AVC
Format/Info : Advanced Video Codec
Format profile : [email protected]
Format settings : CABAC / 4 Ref Frames
Format settings, CABAC : Yes
Format settings, Reference : 4 frames
Codec ID : V_MPEG4/ISO/AVC
Duration : 1 h 26 min
Nominal bit rate : 2 500 kb/s
Width : 1 920 pixels
Height : 1 080 pixels
Display aspect ratio : 16:9
Frame rate mode : Constant
Frame rate : 23.976 (23976/1000) FPS
Color space : YUV
Chroma subsampling : 4:2:0
Bit depth : 8 bits
Scan type : Progressive
Bits/(Pixel*Frame) : 0.050
Writing library : core 152 r2851M ba24899
Encoding settings : cabac=1 / ref=4 / deblock=1:-1:-1 / analyse=0x3:0x113 / me=umh / subme=9 / psy=1 / psy_rd=1.00:0.15 / mixed_ref=1 / me_range=24 / chroma_me=1 / trellis=2 / 8x8dct=1 / cqm=0 / deadzone=21,11 / fast_pskip=1 / chroma_qp_offset=-3 / threads=16 / lookahead_threads=4 / sliced_threads=0 / nr=0 / decimate=1 / interlaced=0 / bluray_compat=0 / constrained_intra=0 / bframes=3 / b_pyramid=2 / b_adapt=2 / b_bias=0 / direct=3 / weightb=1 / open_gop=0 / weightp=2 / keyint=250 / keyint_min=25 / scenecut=40 / intra_refresh=0 / rc_lookahead=50 / rc=2pass / mbtree=1 / bitrate=2500 / ratetol=1.0 / qcomp=0.60 / qpmin=0 / qpmax=69 / qpstep=4 / cplxblur=20.0 / qblur=0.5 / vbv_maxrate=31250 / vbv_bufsize=31250 / nal_hrd=none / filler=0 / ip_ratio=1.40 / aq=3:1.00
Default : Yes
Forced : No

Audio #1
ID : 2
Format : AC-3
Format/Info : Audio Coding 3
Commercial name : Dolby Digital
Codec ID : A_AC3
Duration : 1 h 26 min
Bit rate mode : Constant
Bit rate : 192 kb/s
Channel(s) : 2 channels
Channel layout : L R
Sampling rate : 48.0 kHz
Frame rate : 31.250 FPS (1536 SPF)
Compression mode : Lossy
Delay relative to video : -43 ms
Stream size : 119 MiB (7%)
Title : UKR (Indigo)
Language : Ukrainian
Service kind : Complete Main
Default : Yes
Forced : Yes

Audio #2
ID : 3
Format : LC
Format/Info : Advanced Audio Codec Low Complexity
Codec ID : A_AAC-2
Duration : 1 h 26 min
Channel(s) : 6 channels
Channel layout : C L R Ls Rs LFE
Sampling rate : 48.0 kHz
Frame rate : 46.875 FPS (1024 SPF)
Compression mode : Lossy
Delay relative to video : -43 ms
Language : English
Default : No
Forced : No
Скріншоти





Квіткарка: Убивство на весіллі / Flower Shop Mystery: Dearly Depotted (2016) 1080p Ukr/Eng

Квіткарка: Убивство на весіллі / Flower Shop Mystery: Dearly Depotted (2016) 1080p Ukr/Eng

Квіткарка (1 сезон) / Flower Shop Mysteries (TV Mini-Series) (2016) 1080p Ukr/Eng




Сюжет:
Еббі Найт, колишній юрист і власниця квіткового магазину Bloomers, чекає важкий тиждень. Еббі доведеться займатися на весіллі не лише квітами, а й спробувати з'ясувати, хто скоїв вбивство.


Тривалість: 01:23:59
Info

General
Unique ID : 222353041515743773699879204602889628824 (0xA747A359BD75BA58975376541E4BEC98)
Format :
Format version : Version 4
File size : 1.71 GiB
Duration : 1 h 23 min
Overall bit rate : 2 918 kb/s
Encoded date : UTC 2020-11-29 20:21:11
Writing application : v6.1.0 ('Old Devil') built on Mar 4 2013 09:10:42
Writing library : libebml v1.3.0 + v1.4.0

Video
ID : 1
Format : AVC
Format/Info : Advanced Video Codec
Format profile : [email protected]
Format settings : CABAC / 4 Ref Frames
Format settings, CABAC : Yes
Format settings, Reference : 4 frames
Codec ID : V_MPEG4/ISO/AVC
Duration : 1 h 23 min
Nominal bit rate : 2 500 kb/s
Width : 1 920 pixels
Height : 1 080 pixels
Display aspect ratio : 16:9
Frame rate mode : Constant
Frame rate : 23.976 (23976/1000) FPS
Color space : YUV
Chroma subsampling : 4:2:0
Bit depth : 8 bits
Scan type : Progressive
Bits/(Pixel*Frame) : 0.050
Writing library : core 152 r2851M ba24899
Encoding settings : cabac=1 / ref=4 / deblock=1:-1:-1 / analyse=0x3:0x113 / me=umh / subme=9 / psy=1 / psy_rd=1.00:0.15 / mixed_ref=1 / me_range=24 / chroma_me=1 / trellis=2 / 8x8dct=1 / cqm=0 / deadzone=21,11 / fast_pskip=1 / chroma_qp_offset=-3 / threads=16 / lookahead_threads=4 / sliced_threads=0 / nr=0 / decimate=1 / interlaced=0 / bluray_compat=0 / constrained_intra=0 / bframes=3 / b_pyramid=2 / b_adapt=2 / b_bias=0 / direct=3 / weightb=1 / open_gop=0 / weightp=2 / keyint=250 / keyint_min=25 / scenecut=40 / intra_refresh=0 / rc_lookahead=50 / rc=2pass / mbtree=1 / bitrate=2500 / ratetol=1.0 / qcomp=0.60 / qpmin=0 / qpmax=69 / qpstep=4 / cplxblur=20.0 / qblur=0.5 / vbv_maxrate=31250 / vbv_bufsize=31250 / nal_hrd=none / filler=0 / ip_ratio=1.40 / aq=3:1.00
Default : Yes
Forced : No

Audio #1
ID : 2
Format : AC-3
Format/Info : Audio Coding 3
Commercial name : Dolby Digital
Codec ID : A_AC3
Duration : 1 h 23 min
Bit rate mode : Constant
Bit rate : 192 kb/s
Channel(s) : 2 channels
Channel layout : L R
Sampling rate : 48.0 kHz
Frame rate : 31.250 FPS (1536 SPF)
Compression mode : Lossy
Delay relative to video : -43 ms
Stream size : 115 MiB (7%)
Title : UKR (Indigo)
Language : Ukrainian
Service kind : Complete Main
Default : Yes
Forced : Yes

Audio #2
ID : 3
Format : LC
Format/Info : Advanced Audio Codec Low Complexity
Codec ID : A_AAC-2
Duration : 1 h 23 min
Channel(s) : 6 channels
Channel layout : C L R Ls Rs LFE
Sampling rate : 48.0 kHz
Frame rate : 46.875 FPS (1024 SPF)
Compression mode : Lossy
Delay relative to video : -43 ms
Title : ENG
Language : English
Default : No
Forced : No
Скріншоти





Якість: 1080p
Відео:
кодек:
розмір кадру: 1920х1080
бітрейт: 2500 кб/с

Аудіо # 1:
мова: українська
переклад: багатоголосий закадровий
кодек: 2.0
бітрейт: 192 кб/с

Аудіо # 2:
мова: англійська
переклад: оригінал
кодек: 5.1
бітрейт: 224 кб/с

Джерело:


Бронзовий реліз (на рейтинг впливає 75% завантаженого)
 Трекер:    Зареєстрований   

Завантажити / скачати серіал українською



відео для новачків



 Зареєстрований:   2020-11-29 22:24
 Розмір:   5.24 GB 
 Оцінка серіалу:   10/10 (Голосів: 5)
   
SurFutur 
VIP


З нами з: 12.03.15
Востаннє: 06.02.21
Повідомлень: 530

2020-11-29 22:28  
Посилання на IMDB правильне, але картинка - ні ("загубилась" остання цифра).
Anonymous 







2020-11-29 22:33  
SurFutur
в коді ніби все добре... хз... якийсь глюк

SurFutur 
VIP


З нами з: 12.03.15
Востаннє: 06.02.21
Повідомлень: 530

2020-11-29 22:39  
Anonymous написано:
в коді ніби все добре... хз... якийсь глюк

Код:
[url=https://www.imdb.com/title/tt13174746/][img]http://hurtom.com/imdb/tt13174746.png[/img][/url]

Зміни на це. Має бути все гаразд.

Anonymous 







2020-11-30 06:10  
SurFutur
Дякую

Oksana from West 
Свій


З нами з: 21.09.09
Востаннє: 05.03.21
Повідомлень: 83

2020-11-30 12:00  
Дяка вам велика!
KarluhsaS 
Новенький


З нами з: 26.01.18
Востаннє: 05.03.21
Повідомлень: 3

2020-12-26 13:12  
Дякую . Обожнюю такі жіночі детективи. Happy
Ваш часовий пояс: GMT + 2 Години

Нова тема   Відповісти