Чемпіонат Англії 2020/21 | Евертон - Лідс Юнайтед | 10 тур | Setanta Sports (28.11.2020) 720p

Нові коментарі

Нова тема   Відповісти
Останній раз роздавалося misamisk (2021-02-25)
Автор Повідомлення
misamisk 
Поважний учасник


З нами з: 16.10.17
Востаннє: 25.02.21
Повідомлень: 154

2020-11-29 15:06  
Чемпіонат Англії 2020/21 | Евертон - Лідс Юнайтед | 10 тур | Setanta Sports (28.11.2020) 720p

Чемпіонат Англії 2020/21 | Евертон - Лідс Юнайтед | 10 тур | Setanta Sports (28.11.2020) 720p


Телеканал: Setanta Sports Ukraine
Опис:
Матч 10 туру Англійської Прем'єр-Ліги між Евертоном та Лідсом відбувся 28 листопада 2020 на стадіоні "Гудісон Парк" у місті Ліверпуль.

Матч обслуговували:
Рефері: Кріс Кавана
Асистенти рефері: Ден Кук, Константін Хатцидакіс
Четвертий арбітр: Дарен Інгланд
VAR: Андре Маррінер
Асистент VAR: Лі Беттс

Коментатор: Дмитро Джулай


Тривалість: 01:50:58
Якість:
Відео:
кодек:
розмір кадру: 1280 x 720
бітрейт: 4000 кб/с

Аудіо:
мова: українська
переклад: одноголосий закадровий
кодек: 2.0
бітрейт: 320 кб/с
Стартові склади
Info
General
Unique ID : 273051568017323765239201176920933900192 (0xCD6BD1B1E3FE92903BA04A0512C19FA0)
Complete name : EPL.Matchday.10.Everton-Leeds.28.11.2020..
Format :
Format version : Version 4
File size : 3.35 GiB
Duration : 1 h 50 min
Overall bit rate mode : Variable
Overall bit rate : 4 322 kb/s
Movie name : English Premiere League 2020/21.Matchday 10. Everton - Leeds United
Encoded date : UTC 2020-11-29 12:30:36
Writing application : v24.0.0 ('Beyond The Pale') 64-bit
Writing library : libebml v1.3.6 + v1.4.9

Video
ID : 1
Format : AVC
Format/Info : Advanced Video Codec
Format profile : [email protected]
Format settings : CABAC / 2 Ref Frames
Format settings, CABAC : Yes
Format settings, Reference frames : 2 frames
Format settings, GOP : M=1, N=25
Codec ID : V_MPEG4/ISO/AVC
Duration : 1 h 50 min
Bit rate mode : Variable
Bit rate : 3 999 kb/s
Maximum bit rate : 768 kb/s
Width : 1 280 pixels
Height : 720 pixels
Display aspect ratio : 16:9
Frame rate mode : Constant
Frame rate : 29.970 (30000/1001) FPS
Original frame rate : 25.000 FPS
Color space : YUV
Chroma subsampling : 4:2:0
Bit depth : 8 bits
Scan type : Progressive
Bits/(Pixel*Frame) : 0.145
Stream size : 3.10 GiB (93%)
Title : English Premiere League 2020/21.Matchday 10. Everton - Leeds United
Language : English
Default : Yes
Forced : No

Audio
ID : 2
Format : LC
Format/Info : Advanced Audio Codec Low Complexity
Codec ID : A_AAC-2
Duration : 1 h 50 min
Bit rate : 320 kb/s
Channel(s) : 2 channels
Channel layout : L R
Sampling rate : 44.1 kHz
Frame rate : 43.066 FPS (1024 SPF)
Compression mode : Lossy
Stream size : 254 MiB (7%)
Title : Commentaries by Dmytro Dzhulay
Language : Ukrainian
Default : Yes
Forced : No
Скріншоти
Особиста оцінка: 10 - без зайвих вагань рекомендую всім!


Золотий реліз (завантажене не впливає на рейтинг)
 Трекер:    Зареєстрований   

Завантажити / скачати торрент



відео для новачків



 Зареєстрований:   2020-11-29 15:06
 Розмір:   3.35 GB 
 Оцінка:   9.5/10 (Голосів: 2)
   
antik_2008 
Релізер і модератор відео


З нами з: 20.10.08
Востаннє: 25.02.21
Повідомлень: 4680

2020-11-30 01:48  
Гарний матч.
misamisk 
Поважний учасник


З нами з: 16.10.17
Востаннє: 25.02.21
Повідомлень: 154

2020-11-30 12:17  
Спойлер
Як казав Дмитро Джулай перед перервою:
Цитата:
Якимось дивовижним чином без забитих м'ячів на "Гудісоні" після першого тайму

Матч дійсно вийшов захоплюючий, такого видовищного футболу зараз не вистачає

misamisk 
Поважний учасник


З нами з: 16.10.17
Востаннє: 25.02.21
Повідомлень: 154

2020-12-07 07:35  
Записав дербі "Тоттенгем - Арсенал", увечері думаю викласти
Ваш часовий пояс: GMT + 2 Години

Нова тема   Відповісти