Мільярди (Сезон 4) / Billions (Season 4) (2019) 1080p Ukr/Eng | sub Eng

Нові коментарі

Нова тема   Відповісти
Останній раз роздавалося ssTAss (2021-03-02)
Автор Повідомлення
Anonymous 







2020-11-28 19:04  
Мільярди (Сезон 4) / Billions (Season 4) (2019) 1080p Ukr/Eng | sub Eng

Мільярди (Сезон 4) / Billions (Season 4) (2019) 1080p Ukr/Eng | sub Eng


Жанр: драма
Країна: США



Кінокомпанія: Showtime Entertainment, Best Available!
Режисер: Брайан Коппельман , Девід Левієн , Ендрю Росс Соркін
Актори: Пол Джаматті, Даміан Льюїс, Меґі Сіфф, Девід Костабіле, Кондола Рашад, Даніель К. Ісаак, Келлі Окойн та інші

Сюжет:
У центрі сюжету серіалу дві найбільші фігури фінансового світу США : мільярдер Боббі «Акс» Аксельрод - успішний бізнесмен, глава хедж-фонду Axe Capital, який зміг заробити капітал в неспокійний час після подій 11 вересня і фінансової кризи, і прокурор Південного округу Нью-Йорка Чак Роадс, який дізнається про тіньову діяльність фонду, пов'язаної з інсайдерською активністю Аксельрода і вирішує почати розслідування проти нього. Конфлікт ускладнюється тим, що в компанії Аксельрода працює психологом дружина Чака - Венді. Акс дуже дорожить нею і не хоче того, щоб вона покинула штат фонду через можливий конфлікт інтересів. Венді постійно знаходиться між противниками цього конфлікту....


Тривалість: 1 серія: ~ 55 хв. (цілком серій: 12)
Перелік серій
01 - Chucky Rhoades's Greatest Game
02 - Arousal Template
03 - Chickentown
04 - Overton Window
05 - A Sendoff
06 - Maximum Recreational Depth
07 - Infinite Game
08 - Fight Night
09 - American Champion
10 - New Year's Day
11 - Lamster
12 - Extreme Sandbox
Якість: [Billions.S04.1080p.AMZN..DDP5.1.-NTb]
Відео:
кодек:
розмір кадру: 1920 x 1080
бітрейт: 7188 кб/с

Аудіо # 1:
мова: українська
переклад: багатоголосий закадровий
кодек: 2.0
бітрейт: 192 кб/с

Аудіо # 2:
мова: англійська
переклад: оригінал
кодек: 5.1
бітрейт: 640 кб/с

Джерело озвучення:
DniproFilm

Субтитри:
мова: англійська
тип: програмні (м'які)
формат: *.srt
Info
Код:
General
Unique ID                                : 203259029960856464530663329137327889552 (0x98EA43E5E88374821F2D2439A6A05C90)
Complete name                            : Billions S04E01 (2019) 1080p [Ukr_Eng] [Hurtom].
Format                                   :
Format version                           : Version 4
File size                                : 3.05 GiB
Duration                                 : 54 min 27 s
Overall bit rate                         : 8 023 kb/s
Movie name                               : Мільярди (Сезон 4, серія 1) (2019)
Encoded date                             : UTC 2020-11-20 02:16:18
Writing application                      : v50.0.0 ('Awakenings') 64-bit
Writing library                          : libebml v1.4.0 + v1.6.2
Cover                                    : Yes
Attachments                              : cover.jpg

Video
ID                                       : 1
Format                                   : AVC
Format/Info                              : Advanced Video Codec
Format profile                           : [email protected]
Format settings                          : CABAC / 4 Ref Frames
Format settings, CABAC                   : Yes
Format settings, Reference frames        : 4 frames
Codec ID                                 : V_MPEG4/ISO/AVC
Duration                                 : 54 min 27 s
Bit rate mode                            : Constant
Bit rate                                 : 7 188 kb/s
Nominal bit rate                         : 10 000 kb/s
Width                                    : 1 920 pixels
Height                                   : 1 080 pixels
Display aspect ratio                     : 16:9
Frame rate mode                          : Constant
Frame rate                               : 23.976 (24000/1001) FPS
Color space                              : YUV
Chroma subsampling                       : 4:2:0
Bit depth                                : 8 bits
Scan type                                : Progressive
Bits/(Pixel*Frame)                       : 0.145
Stream size                              : 2.73 GiB (90%)
Language                                 : English
Default                                  : Yes
Forced                                   : No
Color range                              : Limited
Color primaries                          : BT.709
Transfer characteristics                 : BT.709
Matrix coefficients                      : BT.709

Audio #1
ID                                       : 2
Format                                   : AC-3
Format/Info                              : Audio Coding 3
Commercial name                          : Dolby Digital
Codec ID                                 : A_AC3
Duration                                 : 54 min 27 s
Bit rate mode                            : Constant
Bit rate                                 : 192 kb/s
Channel(s)                               : 2 channels
Channel layout                           : L R
Sampling rate                            : 48.0 kHz
Frame rate                               : 31.250 FPS (1536 SPF)
Compression mode                         : Lossy
Stream size                              : 74.8 MiB (2%)
Language                                 : Ukrainian
Service kind                             : Complete Main
Default                                  : Yes
Forced                                   : Yes

Audio #2
ID                                       : 3
Format                                   : E-AC-3
Format/Info                              : Enhanced AC-3
Commercial name                          : Dolby Digital Plus
Codec ID                                 : A_EAC3
Duration                                 : 54 min 27 s
Bit rate mode                            : Constant
Bit rate                                 : 640 kb/s
Channel(s)                               : 6 channels
Channel layout                           : L R C LFE Ls Rs
Sampling rate                            : 48.0 kHz
Frame rate                               : 31.250 FPS (1536 SPF)
Compression mode                         : Lossy
Delay relative to video                  : 18 ms
Stream size                              : 249 MiB (8%)
Language                                 : English
Service kind                             : Complete Main
Default                                  : No
Forced                                   : No

Text
ID                                       : 4
Format                                   : UTF-8
Codec ID                                 : S_TEXT/UTF8
Codec ID/Info                            : UTF-8 Plain Text
Duration                                 : 53 min 0 s
Bit rate                                 : 102 b/s
Count of elements                        : 1279
Stream size                              : 39.9 KiB (0%)
Title                                    : SDH
Language                                 : English
Default                                  : No
Forced                                   : No

Скріншоти



Джерело:
Подяка пану -_-В_Е_N_D_E_R-_- за допомогу у створенні релізу


Авторський реліз (завантажувати можна без реєстрації)
 Трекер:    Зареєстрований   

Завантажити / скачати серіал українською



відео для новачків



 Зареєстрований:   2020-11-28 19:04
 Розмір:   40.83 GB 
 Оцінка серіалу:   9.8/10 (Голосів: 4)
   
yuorockas 
Новенький


З нами з: 05.03.19
Востаннє: 22.12.20
Повідомлень: 1

2020-12-17 21:45  
Є в когось попередні 3 сезони?
catkiev 
Новенький


З нами з: 12.01.10
Востаннє: 01.03.21
Повідомлень: 10

2021-01-06 00:13  
yuorockas
я їх українською не знайшов (((

sumarmds 
Частий відвідувач


З нами з: 10.07.19
Востаннє: 19.02.21
Повідомлень: 33

2021-01-16 00:48  
catkiev написано:
я їх українською не знайшов (((


обломчик для тих хто тонд спік інглиш Sad (1)

Ваш часовий пояс: GMT + 2 Години

Нова тема   Відповісти