Тенет / Tenet [IMAX Edition] (2020) 720p Ukr/Eng | Sub Eng

Нові коментарі

Нова тема   Відповісти
Автор Повідомлення
Anonymous 







2020-11-28 16:16  


Тенет / Tenet [IMAX Edition] (2020) 720p Ukr/Eng | Sub Eng



"Час минає"






Жанр: бойовик, драма, фантастика, трилер
Країна: США











Кінокомпанія: Warner Bros. Pictures Syncopy Inc.
Режисер: Крістофер Нолан
Актори: Джон Девід Вашингтон, Роберт Паттінсон, Елізабет Дебікі, Кеннет Брана, Аарон Тейлор-Джонсон, Майкл Кейн


Сюжет:
Озброєний єдиним словом — Тенет — головний герой бореться за виживання усього світу. Він подорожує оповитим сутінками світом міжнародного шпигунства з єдиною місією, яка розгорнеться за межами реального часу. Це не подорож крізь час. Це інверсія.



Тривалість: 02:30:09
Якість: 720p [IMAX Edition]


Відео:
кодек:
розмір кадру: 1280 х 720
бітрейт: ~ 5500 кб/с

Аудіо # 1:
мова: українська
переклад: професійний дубльований
кодек: 5.1
бітрейт: 384 кб/с

Аудіо # 2:
мова: українська
переклад: професійний дубльований
кодек: 2.0
бітрейт: 192 кб/с

Аудіо # 3:
мова: англійська
переклад: оригінал
кодек: 5.1
бітрейт: 1536 кб/с

Субтитри # 1 : (Forced)
мова: українська
тип: програмні (м'які)
формат: *.srt

Субтитри # 2 - 3 : (Full, SDH)
мова: англійська
тип: програмні (м'які)
формат: *.srt


Info
Код:

General
Complete name                            : Tenet [IMAX Edition] (2020) 720p [Ukr, Eng] [ViDeO_Hurtom].
Format                                   :
Format version                           : Version 4
File size                                : 7.96 GiB
Duration                                 : 2 h 30 min
Overall bit rate                         : 7 585 kb/s
Movie name                               : Tenet [IMAX Edition] (2020)
Encoded date                             : UTC 2020-12-15 09:47:40
Writing application                      : v30.1.0 ('Forever And More') 64-bit
Writing library                          : libebml v1.3.6 + v1.4.9
Cover                                    : Yes
Attachments                              : cover.jpg

Video
ID                                       : 1
Format                                   : AVC
Format/Info                              : Advanced Video Codec
Format profile                           : [email protected]
Format settings                          : CABAC / 4 Ref Frames
Format settings, CABAC                   : Yes
Format settings, RefFrames               : 4 frames
Codec ID                                 : V_MPEG4/ISO/AVC
Duration                                 : 2 h 30 min
Bit rate                                 : 5 500 kb/s
Width                                    : 1 280 pixels
Height                                   : 720 pixels
Display aspect ratio                     : 16:9
Frame rate mode                          : Constant
Frame rate                               : 23.976 (24000/1001) FPS
Color space                              : YUV
Chroma subsampling                       : 4:2:0
Bit depth                                : 8 bits
Scan type                                : Progressive
Bits/(Pixel*Frame)                       : 0.249
Stream size                              : 5.77 GiB (72%)
Writing library                          : core 148 r2795M aaa9aa8
Encoding settings                        : cabac=1 / ref=4 / deblock=1:-2:-2 / analyse=0x3:0x113 / me=umh / subme=9 / psy=1 / psy_rd=1.00:0.15 / mixed_ref=1 / me_range=16 / chroma_me=1 / trellis=2 / 8x8dct=1 / cqm=0 / deadzone=21,11 / fast_pskip=1 / chroma_qp_offset=-3 / threads=72 / lookahead_threads=3 / sliced_threads=0 / nr=0 / decimate=1 / interlaced=0 / bluray_compat=0 / constrained_intra=0 / bframes=3 / b_pyramid=2 / b_adapt=1 / b_bias=0 / direct=3 / weightb=1 / open_gop=0 / weightp=2 / keyint=250 / keyint_min=25 / scenecut=40 / intra_refresh=0 / rc_lookahead=50 / rc=2pass / mbtree=1 / bitrate=5500 / ratetol=1.0 / qcomp=0.60 / qpmin=0 / qpmax=69 / qpstep=4 / cplxblur=20.0 / qblur=0.5 / vbv_maxrate=31250 / vbv_bufsize=31250 / nal_hrd=none / filler=0 / ip_ratio=1.40 / aq=1:1.00
Language                                 : English
Default                                  : Yes
Forced                                   : No

Audio #1
ID                                       : 2
Format                                   : AC-3
Format/Info                              : Audio Coding 3
Commercial name                          : Dolby Digital
Codec ID                                 : A_AC3
Duration                                 : 2 h 30 min
Bit rate mode                            : Constant
Bit rate                                 : 384 kb/s
Channel(s)                               : 6 channels
Channel layout                           : L R C LFE Ls Rs
Sampling rate                            : 48.0 kHz
Frame rate                               : 31.250 FPS (1536 SPF)
Bit depth                                : 16 bits
Compression mode                         : Lossy
Stream size                              : 412 MiB (5%)
Title                                    : 5.1 | 384
Language                                 : Ukrainian
Service kind                             : Complete Main
Default                                  : Yes
Forced                                   : No

Audio #2
ID                                       : 3
Format                                   : AC-3
Format/Info                              : Audio Coding 3
Commercial name                          : Dolby Digital
Codec ID                                 : A_AC3
Duration                                 : 2 h 30 min
Bit rate mode                            : Constant
Bit rate                                 : 192 kb/s
Channel(s)                               : 2 channels
Channel layout                           : L R
Sampling rate                            : 44.1 kHz
Frame rate                               : 28.711 FPS (1536 SPF)
Bit depth                                : 16 bits
Compression mode                         : Lossy
Stream size                              : 206 MiB (3%)
Title                                    : 2.0 | 192
Language                                 : Ukrainian
Service kind                             : Complete Main
Default                                  : No
Forced                                   : No

Audio #3
ID                                       : 4
Format                                   :
Format/Info                              : Digital Theater Systems
Codec ID                                 : A_DTS
Duration                                 : 2 h 30 min
Bit rate mode                            : Constant
Bit rate                                 : 1 509 kb/s
Channel(s)                               : 6 channels
Channel layout                           : C L R Ls Rs LFE
Sampling rate                            : 48.0 kHz
Frame rate                               : 93.750 FPS (512 SPF)
Bit depth                                : 24 bits
Compression mode                         : Lossy
Stream size                              : 1.58 GiB (20%)
Title                                    : 5.1 | 1536
Language                                 : English
Default                                  : No
Forced                                   : No

Text #1
ID                                       : 5
Format                                   : UTF-8
Codec ID                                 : S_TEXT/UTF8
Codec ID/Info                            : UTF-8 Plain Text
Duration                                 : 2 h 16 min
Bit rate                                 : 0 b/s
Count of elements                        : 24
Stream size                              : 735 Bytes (0%)
Title                                    : Forced
Language                                 : Ukrainian
Default                                  : Yes
Forced                                   : No

Text #2
ID                                       : 6
Format                                   : UTF-8
Codec ID                                 : S_TEXT/UTF8
Codec ID/Info                            : UTF-8 Plain Text
Duration                                 : 2 h 23 min
Bit rate                                 : 53 b/s
Count of elements                        : 1870
Stream size                              : 56.7 KiB (0%)
Title                                    : Full
Language                                 : English
Default                                  : No
Forced                                   : No

Text #3
ID                                       : 7
Format                                   : UTF-8
Codec ID                                 : S_TEXT/UTF8
Codec ID/Info                            : UTF-8 Plain Text
Duration                                 : 2 h 26 min
Bit rate                                 : 59 b/s
Count of elements                        : 2137
Stream size                              : 63.7 KiB (0%)
Title                                    : SDH
Language                                 : English
Default                                  : No
Forced                                   : No

Menu
00:00:00.000                             : en:Chapter 01
00:09:39.203                             : en:Chapter 02
00:19:30.419                             : en:Chapter 03
00:28:18.071                             : en:Chapter 04
00:38:49.118                             : en:Chapter 05
00:49:20.165                             : en:Chapter 06
01:00:33.254                             : en:Chapter 07
01:09:41.510                             : en:Chapter 08
01:22:36.284                             : en:Chapter 09
01:30:54.740                             : en:Chapter 10
01:39:40.683                             : en:Chapter 11
01:51:02.280                             : en:Chapter 12
01:59:40.548                             : en:Chapter 13
02:11:42.853                             : en:Chapter 14
02:19:07.047                             : en:Chapter 15

Скріншоти


















Джерело:
Особиста оцінка: 0 - не дивився






 Трекер:    Зареєстрований   

Завантажити / скачати фільм українською



відео для новачків



 Зареєстрований:   2020-12-15 12:09
 Розмір:   7.96 GB 
 Оцінка фільму:   8.7/10 (Голосів: 71)
   
Інші релізи
   Тенет / Tenet (2020) [IMAX] 1080p H.265 Ukr/Eng | Sub Eng -Star-Lord-  24 / 3   8.68 GB   2020-12-29 01:22 
   Тенет [IMAX версія] / Tenet [IMAX Edition] (2020) AVC BASTERD-94  27 / 0   2.3 GB   2020-12-17 23:57 
   Тенет / Tenet (2020) Remux 1080p Ukr/Eng | Sub Eng [IMAX Edition] staf777  23 / 1   36.77 GB   2020-12-15 14:30 
   Тенет / Tenet [IMAX Edition] (2020) Ukr | Sub Eng antik_2008  22 / 1   2 GB   2020-12-15 13:49 
   Тенет / Tenet [IMAX Edition] (2020) AVC Ukr/Eng | Sub Eng eneyida.tv  29 / 0   3.22 GB   2020-12-15 12:43 
   Тенет / Tenet [IMAX Edition] (2020) Ukr/Eng | Sub Eng antik_2008  27 / 0   2.71 GB   2020-12-15 12:41 
   Тенет / Tenet (2020) UHD Remux 4K 2160p HDR H.265 Ukr/Eng | Sub Eng RoMeL  45 / 0   65.58 GB   2020-12-15 08:52 
   Тенет / Tenet (2020) 1080p [IMAX] Ukr/Eng | Sub Eng RoMeL  58 / 1   13.11 GB   2020-12-15 04:03 
RoMeL 
Відео Гуртом - підтримка та поширення
Відео Гуртом - підтримка та поширення


З нами з: 09.07.08
Востаннє: 19.01.21
Повідомлень: 319

2020-11-28 18:11  
якщо ніхто не зробить то планую робити Remux 4K HDR Rolleyes (1)
SYORA 
Новенький


З нами з: 20.07.19
Востаннє: 19.01.21
Повідомлень: 21

2020-11-28 22:47  
якщо ніхто не зробить то планую робити Remux 4K HDR
RoMeL роби. Буду чекати.Нехай щастить.

qarty1 
VIP


З нами з: 01.11.09
Востаннє: 19.01.21
Повідомлень: 407

2020-11-29 07:41  
ходив у кіно фільм сподобався, але не всьо поняв тому чекав реліз, дякую потрібно передивитись
drop_plz 
Попереджень: 2
Попереджень: 2 


З нами з: 07.02.14
Востаннє: 19.01.21
Повідомлень: 2815

2020-11-29 19:37  
Хтось мені підкаже, що оце я зараз подивився? Ппц... ну і накрутили з сюжетом..
Custo 12 
Поважний учасник


З нами з: 08.11.16
Востаннє: 18.01.21
Повідомлень: 151

2020-11-30 18:32  
Ну це Нолан, просто і не могло бути. Якісне кіно, ще передивлюся щоб добре допетрати. Схоже на Початок по відчуттях.

IMHO Я розумію, що це для картинки робиться, і тут може не так помітно. Але оці атаки в повний ріст зграєю на противника з автоматичною зброєю трохи вишибають. Згадався його Темний лицар, де копи в рукопашку на автоматників кинулись.

Lil`Antoni 
VIP


З нами з: 25.02.12
Востаннє: 18.01.21
Повідомлень: 876

2020-12-01 20:09  
Вартує чекати не line In?
І як взагалі якість звука?

В AVC не пише line In але там я так розумію те саме??

пан Струмок 
VIP


З нами з: 19.02.13
Востаннє: 16.01.21
Повідомлень: 311

2020-12-02 19:53  
Інвертована бредня
І-р 
Свій


З нами з: 21.07.16
Востаннє: 19.01.21
Повідомлень: 142

2020-12-03 17:55  
пан Струмок написано:
Інвертована бредня

Можна трохи аргументів?

пан Струмок 
VIP


З нами з: 19.02.13
Востаннє: 16.01.21
Повідомлень: 311

2020-12-03 18:15  
І-р
За аргументами ласкаво прошу до перегляду.

Anonymous 







2020-12-04 15:46  
Торент файл оновлено. Заміна відео на [IMAX Edition] 
zickovich 
Новенький


З нами з: 03.03.11
Востаннє: 09.01.21
Повідомлень: 2

2020-12-04 19:41  
Я так розумію, що звук писали кіномеханіки з моно каналу - бо реально звук дуже і дуже поганий
krovosisi 
Новенький


З нами з: 09.12.12
Востаннє: 19.01.21
Повідомлень: 14

2020-12-08 23:51  
Якість звуку взагалі не дозволяє зосередитись на перегляді, очікуємо на щось більш прийнятне)
MAGnitos 
Частий відвідувач


З нами з: 30.10.16
Востаннє: 17.01.21
Повідомлень: 29

2020-12-12 20:11  
Ніфіга не зрозумів, але дуже цікаво.
Даремно витрачений час. 2/10 за ефекти.

Anonymous 







2020-12-12 21:38  
zickovich написано:
так розумію, що звук писали кіномеханіки з моно каналу - бо реально звук дуже і дуже поганий

krovosisi написано:
кість звуку взагалі не дозволяє зосередитись на перегляді, очікуємо на щось більш прийнятне)

Lil`Antoni написано:

Вартує чекати не line In?
І як взагалі якість звука?

~ 16.12.2020

wolx1980 
Новенький


З нами з: 25.11.12
Востаннє: 18.01.21
Повідомлень: 11

2020-12-13 15:53  
авно повне, даремно кошти на переклад потратили
Anonymous 







2020-12-15 12:09  


15.12.2020 Роздачу оновлено


Замінив доріжку на якіснішу



PetVit 
Новенький


З нами з: 26.04.11
Востаннє: 18.01.21
Повідомлень: 1

2020-12-15 12:52  
Дякую за нормальний звук!
І-р 
Свій


З нами з: 21.07.16
Востаннє: 19.01.21
Повідомлень: 142

2020-12-15 13:13  
пан Струмок написано:
За аргументами ласкаво прошу до перегляду.

Для чого тоді було писати відгук? Я й без чиєїсь оцінки можу подивитись і зробити висновок. Але для чого мені витрачати час на всяке безглуздя?! Фільмів багато - всі не передивишся. Тому й хочеться прочитати саме аргументовану думку. Адже смаки і рівень інтелекту у людей різні.

ram_ua 
Новенький


З нами з: 14.09.12
Востаннє: 11.01.21
Повідомлень: 2

2020-12-15 18:36  
пан Струмок
Фільм бомба. З першого разу в'їхати важко. Будемо переглядати... А у кого в голові вітер яка різниця інвестований він чи ні?

Bohdan237 
Відео Гуртом - фільмокрай
Відео Гуртом - фільмокрай


З нами з: 12.02.12
Востаннє: 20.01.21
Повідомлень: 1264

2020-12-23 00:07  
Класний фільм 9/10
Звісно довелося дивитися двічі, аби все зрозуміти
Також сподобалася, що Україна згадується у фільмі з локаціями, українськими написами та мовою, хоч звісно локації насправді і не в нас

strategic 
1k G+


З нами з: 27.01.13
Востаннє: 14.01.21
Повідомлень: 123

2020-12-23 10:12  
Перегляну ще раз
doorko 
Новенький


З нами з: 21.01.14
Востаннє: 11.01.21
Повідомлень: 9

2021-01-03 21:24  
Непоганий бойовичок, цікавий підбір акторів, перемотка часу — якась незрозуміла фігня
Lil`Antoni 
VIP


З нами з: 25.02.12
Востаннє: 18.01.21
Повідомлень: 876

2021-01-07 13:49  
Цікаво закручений сюжет. З першого разу можна і не зрозуміти.
Хочу ще раз переглянути.

Та чомусь звук мені не довподоби Sad (1)

Ефекти дуже голосні а от голоси ледь чути. Викручуватися максимум звук на телевізорі.

Включив доріжку #2, шо голос став краще чути але багато шумів з'явилося Cry (1).
У всіх так чи то тільки у мене?

Ваш часовий пояс: GMT + 2 Години

Нова тема   Відповісти